BitTorrentTracker PerecTracker.org
BitTorrentTracker PerecTracker.org
    
Регистрация  ·  Вход
 
 · 
Забыли пароль?

  • Снайпер / American Sniper (Клинт Иствуд / Clint Eastwood) [2014, США, боевик, триллер, военный, биография, BDRip-AVC] Dub (iTunes) + Subs (Rus, Eng) + Original Eng

    Ответить на тему
     
    Автор Сообщение

    Light

    Создавать темы 10-Май-2015 21:42

           

    [Цитировать]

    Снайпер / American Sniper
    Страна: США
    Жанр: боевик, триллер, военный, биография
    Год выпуска: 2014
    Продолжительность: 02:12:39
    Перевод: Профессиональный (дублированный) iTunes
    Cубтитры: русские, английские
    Оригинальная аудиодорожка: английский
    Режиссер: Клинт Иствуд / Clint Eastwood
    В ролях: Брэдли Купер, Сиенна Миллер, Кайл Галлнер, Бен Рид, Элиз Робертсон, Люк Саншайн, Трой Винсент, Брэндон Сальгадо, Кейр О’Доннелл, Марне Паттерсон
    Описание: Экранизация мемуаров «морского котика» из Техаса Криса Кайла, который служил снайпером в Ираке и стал рекордсменом по числу убитых солдат противника, за что иракцы прозвали его дьяволом. Кроме самой войны, фильм рассказывает о воспоминаниях жены Криса, которая была свидетелем растущей привязанности мужа к его сослуживцам

    Сэмпл: http://sendfile.su/1116632
    Качество видео: BDRip-AVC [Blu-ray Disc -BLUEBIRD]
    Формат видео: MKV
    Видео: AVC, 1152 x 480 (2,40:1), 2383 kbps, 23,976 fps, 0.180 bpp
    Аудио: AC3, 6ch, 48 kHz, 384 kbps, 16 bit
    Аудио 2: AC3, 6ch, 48 kHz, 384 kbps, 16 bit
    Формат субтитров: softsub (SRT)

    MediaInfo

    Уникальный идентификатор : 219803277314957215345997566634503351557 (0xA55C924502F5524F8C97AB68D47EAD05)
    Полное имя : F:\Films\Sniper 2014\Sniper.mkv
    Формат : Matroska
    Версия формата : Version 4 / Version 2
    Размер файла : 2,92 Гбайт
    Продолжительность : 2 ч. 12 м.
    Общий поток : 3154 Кбит/сек
    Дата кодирования : UTC 2015-05-10 04:20:10
    Программа кодирования : mkvmerge v7.7.0 ('Six Voices') 64bit built on Feb 28 2015 23:39:33
    Библиотека кодирования : libebml v1.3.1 + libmatroska v1.4.2
    _STATISTICS_WRITING_APP : mkvmerge v7.7.0 ('Six Voices') 64bit built on Feb 28 2015 23:39:33
    _STATISTICS_WRITING_DATE_UTC : 2015-05-10 04:20:10
    _STATISTICS_TAGS : BPS DURATION NUMBER_OF_FRAMES NUMBER_OF_BYTES
    DURATION : 02:12:29.608000000
    NUMBER_OF_FRAMES : 1895
    NUMBER_OF_BYTES : 69518
    Видео
    Идентификатор : 1
    Формат : AVC
    Формат/Информация : Advanced Video Codec
    Профиль формата : High@L4.1
    Параметр CABAC формата : Да
    Параметр ReFrames формата : 8 кадров
    Идентификатор кодека : V_MPEG4/ISO/AVC
    Продолжительность : 2 ч. 12 м.
    Битрейт : 2383 Кбит/сек
    Ширина : 1152 пикселя
    Высота : 480 пикселей
    Соотношение сторон : 2,40:1
    Режим частоты кадров : Постоянный
    Частота кадров : 23,976 кадра/сек
    Цветовое пространство : YUV
    Субдискретизация насыщенности : 4:2:0
    Битовая глубина : 8 бит
    Тип развёртки : Прогрессивная
    Бит/(Пиксели*Кадры) : 0.180
    Размер потока : 2,15 Гбайт (74%)
    Библиотека кодирования : x264 core 142 r2431 ac76440
    Настройки программы : cabac=1 / ref=8 / deblock=1:-2:-1 / analyse=0x3:0x133 / me=umh / subme=9 / psy=1 / psy_rd=1.00:0.05 / mixed_ref=0 / me_range=36 / chroma_me=1 / trellis=2 / 8x8dct=1 / cqm=0 / deadzone=21,11 / fast_pskip=0 / chroma_qp_offset=-3 / threads=4 / lookahead_threads=1 / sliced_threads=0 / nr=0 / decimate=0 / interlaced=0 / bluray_compat=0 / constrained_intra=0 / bframes=12 / b_pyramid=2 / b_adapt=2 / b_bias=0 / direct=1 / weightb=1 / open_gop=0 / weightp=2 / keyint=240 / keyint_min=23 / scenecut=40 / intra_refresh=0 / rc=2pass / mbtree=0 / bitrate=2383 / ratetol=1.0 / qcomp=0.60 / qpmin=10 / qpmax=69 / qpstep=4 / cplxblur=20.0 / qblur=0.5 / ip_ratio=1.40 / pb_ratio=1.30 / aq=1:1.00
    Default : Да
    Forced : Нет
    Аудио #1
    Идентификатор : 2
    Формат : AC-3
    Формат/Информация : Audio Coding 3
    Расширение режима : CM (complete main)
    Параметр Endianness формата : Big
    Идентификатор кодека : A_AC3
    Продолжительность : 2 ч. 12 м.
    Вид битрейта : Постоянный
    Битрейт : 384 Кбит/сек
    Каналы : 6 каналов
    Расположение каналов : Front: L C R, Side: L R, LFE
    Частота : 48,0 КГц
    Битовая глубина : 16 бит
    Метод сжатия : С потерями
    Размер потока : 364 Мбайт (12%)
    Заголовок : Русский дублированный (iTunes)
    Язык : Russian
    Default : Да
    Forced : Нет
    Аудио #2
    Идентификатор : 3
    Формат : AC-3
    Формат/Информация : Audio Coding 3
    Расширение режима : CM (complete main)
    Параметр Endianness формата : Big
    Идентификатор кодека : A_AC3
    Продолжительность : 2 ч. 12 м.
    Вид битрейта : Постоянный
    Битрейт : 384 Кбит/сек
    Каналы : 6 каналов
    Расположение каналов : Front: L C R, Side: L R, LFE
    Частота : 48,0 КГц
    Битовая глубина : 16 бит
    Метод сжатия : С потерями
    Размер потока : 364 Мбайт (12%)
    Заголовок : Английский
    Язык : English
    Default : Нет
    Forced : Да
    Текст #1
    Идентификатор : 4
    Формат : UTF-8
    Идентификатор кодека : S_TEXT/UTF8
    Идентификатор кодека/Информация : UTF-8 Plain Text
    Заголовок : Русские
    Язык : Russian
    Default : Нет
    Forced : Да
    Текст #2
    Идентификатор : 5
    Формат : UTF-8
    Идентификатор кодека : S_TEXT/UTF8
    Идентификатор кодека/Информация : UTF-8 Plain Text
    Заголовок : Английские
    Язык : English
    Default : Нет
    Forced : Да
    Меню
    00:00:00.000 : en:00:00:00.000
    00:10:15.240 : en:00:10:15.240
    00:18:56.927 : en:00:18:56.927
    00:28:27.581 : en:00:28:27.581
    00:39:04.425 : en:00:39:04.425
    00:50:57.638 : en:00:50:57.638
    01:00:06.728 : en:01:00:06.728
    01:07:56.447 : en:01:07:56.447
    01:28:44.027 : en:01:28:44.027
    01:37:24.714 : en:01:37:24.714
    01:45:57.351 : en:01:45:57.351
    01:54:44.002 : en:01:54:44.002
    02:04:13.363 : en:02:04:13.363

    Скриншот c названием фильма

    Скриншоты

    Награды

    Возраст

    18+ - зрителям, достигшим 18 лет

    Рейтинг МРАА

    R - лицам до 17 лет обязательно присутствие взрослого
    Скачать .torrent

    Скачать торрент-файл бесплатно и на максимальной скорости!

    Как скачивать? · Что такое торрент? · Рейтинг и ограничения

    !ВНИМАНИЕ!
    Сайт не распространяет и не хранит электронные версии произведений, а занимается лишь лишь предоставлением доступа к создаваемому пользователями каталогу ссылок на торрент-файлы, которые содержат только списки хеш-сумм, убедительная просьба с жалобами обращаться напрямую к пользователю. Файлы для обмена на трекере предоставлены пользователями сайта, и администрация не несёт ответственности за их содержание. Просьба не заливать файлы, защищенные авторскими правами, а также файлы нелегального содержания!


    _________________
    [Профиль] [ЛС]
    Показать сообщения:    
    Ответить на тему

    Текущее время: Сегодня, в 06:09

    Часовой пояс: GMT + 2



    Вы не можете начинать темы
    Вы не можете отвечать на сообщения
    Вы не можете редактировать свои сообщения
    Вы не можете удалять свои сообщения
    Вы не можете голосовать в опросах
    Вы не можете прикреплять файлы к сообщениям
    Вы не можете скачивать файлы