BitTorrentTracker PerecTracker.org
BitTorrentTracker PerecTracker.org
    
Регистрация  ·  Вход
 
 · 
Забыли пароль?

  • Баллада о солдате (Григорий Чухрай) [1959, драма, мелодрама, военный, BDRip]

    Ответить на тему
     
    Автор Сообщение

    rechyn

    Создавать темы 10-Май-2015 16:45

           

    [Цитировать]

    Баллада о солдате-Год выпуска: 1959
    Продолжительность: 01:27:55
    Жанр: драма, мелодрама, военный
    Cубтитры: нет-Режиссер: Григорий Чухрай
    В ролях: Владимир Ивашов, Жанна Прохоренко, Антонина Максимова, Николай Крючков, Евгений Урбанский, Эльза Леждей, Александр Кузнецов, Евгений Тетерин, Валентина Маркова, Мария Кремнева
    О фильме: Великая Отечественная война. Молодой солдат Алёша Скворцов совершает подвиг - подбивает два немецких танка. Командование собирается представить его к ордену, но Алёша просит дать ему отпуск, чтобы повидаться с мамой. Путь домой долог и непрост. Алеша помогает безногому инвалиду встретиться с женой, девушке Шуре - добраться до тетки. Даже последнюю ночь отпуска он проводит не под родной крышей, а спасая детей от бомбежки. И у солдата Скворцова остаётся всего несколько минут, чтобы обнять мать и сказать: «Я вернусь!»
    Релиз:
    Автор: kingsize87
    Качество: BDRip (источник: Blu-ray Disc / 1080p)
    Формат: AVI
    Видео: 704x512 (1.38:1), 23.976 fps, XviD build 65 ~ 1903 kbps avg, 0.22 bit/pixel
    Аудио: 48 kHz, AC3 Dolby Digital, 3/2 (L,C,R,l,r) + LFE ch, ~448.00 kbps avg
    Размер: 1484.64 Mb (1/3 DVD-R)-

    Кадры из фильма

    -

    Mi


    Формат : AVI
    Формат/Информация : Audio Video Interleave
    Размер файла : 1,45 Гбайт
    Продолжительность : 1 ч. 27 м.
    Общий поток : 2361 Кбит/сек
    Название фильма : Баллада о солдате (1959) BDRip
    Режиссёр : kingsize87
    Программа кодирования : VirtualDubMod 1.5.10.2 (build 2540/release)
    Правообладатель : HQCLUB
    Примечание : 23.03.2014
    Видео
    Идентификатор : 0
    Формат : MPEG-4 Visual
    Профиль формата : Advanced Simple@L5
    Параметр BVOP формата : 1
    Параметр QPel формата : Нет
    Параметр GMC формата : Без точки перехода
    Параметр матрицы формата : Выборочная
    Идентификатор кодека : XVID
    Идентификатор кодека/Подсказка : XviD
    Продолжительность : 1 ч. 27 м.
    Битрейт : 1903 Кбит/сек
    Ширина : 704 пикселя
    Высота : 512 пикселей
    Соотношение сторон : 1,375
    Частота кадров : 23,976 кадра/сек
    Цветовое пространство : YUV
    Субдискретизация насыщенности : 4:2:0
    Битовая глубина : 8 бит
    Тип развёртки : Прогрессивная
    Метод сжатия : С потерями
    Бит/(Пиксели*Кадры) : 0.220
    Размер потока : 1,17 Гбайт (81%)
    Библиотека кодирования : XviD 65
    Аудио
    Идентификатор : 1
    Формат : AC-3
    Формат/Информация : Audio Coding 3
    Расширение режима : CM (complete main)
    Параметр Endianness формата : Big
    Идентификатор кодека : 2000
    Продолжительность : 1 ч. 27 м.
    Вид битрейта : Постоянный
    Битрейт : 448 Кбит/сек
    Каналы : 6 каналов
    Расположение каналов : Front: L C R, Side: L R, LFE
    Частота : 48,0 КГц
    Битовая глубина : 16 бит
    Метод сжатия : С потерями
    Размер потока : 282 Мбайт (19%)
    Выравнивание : Разделение по промежуткам
    Продолжительность промежутка : 42 мс. (1,00 видеокадр)
    Время предзагрузки промежутка : 500 мс.
    Скачать .torrent

    Скачать торрент-файл бесплатно и на максимальной скорости!

    Как скачивать? · Что такое торрент? · Рейтинг и ограничения

    !ВНИМАНИЕ!
    Сайт не распространяет и не хранит электронные версии произведений, а занимается лишь лишь предоставлением доступа к создаваемому пользователями каталогу ссылок на торрент-файлы, которые содержат только списки хеш-сумм, убедительная просьба с жалобами обращаться напрямую к пользователю. Файлы для обмена на трекере предоставлены пользователями сайта, и администрация не несёт ответственности за их содержание. Просьба не заливать файлы, защищенные авторскими правами, а также файлы нелегального содержания!


    _________________
    [Профиль] [ЛС]
    Показать сообщения:    
    Ответить на тему

    Текущее время: Сегодня, в 12:43

    Часовой пояс: GMT + 2



    Вы не можете начинать темы
    Вы не можете отвечать на сообщения
    Вы не можете редактировать свои сообщения
    Вы не можете удалять свои сообщения
    Вы не можете голосовать в опросах
    Вы не можете прикреплять файлы к сообщениям
    Вы не можете скачивать файлы