BitTorrentTracker PerecTracker.org
BitTorrentTracker PerecTracker.org
    
Регистрация  ·  Вход
 
 · 
Забыли пароль?

  • С чего начинается Родина. Серии: 1 - 8 из 8 (Рауф Кубаев) [2014, Детектив, драма, SATRip, DVD5 Custom]

    Ответить на тему
     
    Автор Сообщение

    rechyn

    Создавать темы 10-Май-2015 14:56

           

    [Цитировать]

    С чего начинается Родина
    Год выпуска: 2014
    Производство: «Всемирные Русские Студии»
    Жанр: Детектив, драма
    Продолжительность: 03:20:14+03:17:04
    Режиссёр: Рауф Кубаев
    В ролях: Евгений Цыганов, Валерий Баринов, Вадим Андреев, Александр Тютин, Виктор Балабанов, Александр Ермаков, Георгий Тараторкин, Елена Сафонова, Юлия Снигирь, Михаил Гаврилов (II), Эрик Холявко-Гришин, Александр Робак, Юлия Ауг, Полина Ауг, Елена Шевченко, Дмитрий Муляр, Виктор Бивайн, Виктория Романенко, Арнас Федаравичус, Александр Трошин, Андрис Лиелайс
    Описание: Конец 1980-х. Закат советской эпохи. Ветер перемен сметал на своем пути всех и вся. Пользуясь нестабильностью обстановки в советском государстве, ЦРУ объявило награду тому, кто раскроет имена действующих резидентов СССР в западных странах. Предателю пообещали миллион долларов и политическое убежище за границей. Первое и Второе управления КГБ (разведка и контрразведка) были всерьез обеспокоены тем, что может найтись немало желающих заполучить эти деньги. В КГБ решили подсунуть американцам подставного изменника Родины, выбрав безупречного кандидата среди своих же сотрудников. Операция «Фантом» началась…
    Никто из участников событий не мог предположить, что разработанная в КГБ операция принесет свои плоды несколько десятилетий спустя, когда сотрудник американской разведки Джеймс Сноу сообщит всему миру, что спецслужбы США нелегально контролируют личную переписку и телефонные переговоры миллионов людей.

    Релиз
    Качество: SATRip
    Формат: DVD-Video
    Видео кодек: MPEG2
    Аудио кодек: AC3
    Видео: MPEG Video at 2744 Кбит/сек Aspect : 720 x 576 (1.778) at 25.000 fps
    Аудио: AC-3 at 192 Кбит/сек Infos : 2 канала, 48,0 КГц

    MI

    Общее
    Полное имя : E:\kodirovany\С чего начинается Родина.2014.SATRip.DVD5.Doc66\DVD 1\VIDEO_TS\VTS_01_1.VOB
    Формат : MPEG-PS
    Размер файла : 1000 Мбайт
    Продолжительность : 46 м.
    Режим общего битрейта : Переменный
    Общий поток : 2995 Кбит/сек
    Видео
    Идентификатор : 224 (0xE0)
    Формат : MPEG Video
    Версия формата : Version 2
    Профиль формата : Main@Main
    Параметр BVOP формата : Да
    Параметр матрицы формата : Выборочная
    Параметр GOP формата : Variable
    Продолжительность : 46 м.
    Вид битрейта : Переменный
    Битрейт : 2744 Кбит/сек
    Максимальный битрейт : 5600 Кбит/сек
    Ширина : 720 пикселей
    Высота : 576 пикселей
    Соотношение сторон : 16:9
    Частота кадров : 25,000 кадров/сек
    Стандарт вещания : PAL
    Цветовое пространство : YUV
    Субдискретизация насыщенности : 4:2:0
    Битовая глубина : 8 бит
    Тип развёртки : Чересстрочная
    Порядок развёртки : Верхнее поле первое
    Метод сжатия : С потерями
    Бит/(Пиксели*Кадры) : 0.265
    Временной код первого кадра : 00:00:00:00
    Оригинал временного кода : Group of pictures header
    Размер потока : 916 Мбайт (92%)
    Аудио
    Идентификатор : 189 (0xBD)-128 (0x80)
    Формат : AC-3
    Формат/Информация : Audio Coding 3
    Расширение режима : CM (complete main)
    Параметр Endianness формата : Big
    Режим смешивания : DVD-Video
    Продолжительность : 46 м.
    Вид битрейта : Постоянный
    Битрейт : 192 Кбит/сек
    Каналы : 2 канала
    Расположение каналов : Front: L R
    Частота : 48,0 КГц
    Битовая глубина : 16 бит
    Метод сжатия : С потерями
    Размер потока : 64,1 Мбайт (6%)
    Меню

    DVDInfo

    Title: Dati
    Size: 4.30 Gb ( 4 512 442 KBytes ) - DVD-5
    Enabled regions: 1, 2, 3, 4, 5, 6, 7, 8
    VTS_01 :
    Play Length: 00:54:15+00:49:16+00:49:42+00:47:01
    Video: PAL 16:9 (720x576) VBR, Auto Pan&Scan
    Audio:
    Russian (Dolby AC3, 2 ch)
    =========================================================
    Title: Dati
    Size: 4.24 Gb ( 4 442 792 KBytes ) - DVD-5
    Enabled regions: 1, 2, 3, 4, 5, 6, 7, 8
    VTS_01 :
    Play Length: 00:48:51+00:48:52+00:48:19+00:51:02
    Video: PAL 16:9 (720x576) VBR, Auto Pan&Scan
    Audio:
    Russian (Dolby AC3, 2 ch)

    Скриншоты

    Что да как

    1. Для исходного материала использован HD материал, за что слова благодарности olegka7373. Вырезаны в конце серий анонсы следующих серий
    2. Материал сжимался в Carbon Coder 3.0, Mastering, VBR в 2 прохода
    3. Звук раскрыт в wav, нормализован и сжат до DD2 в Sound Forge 9.0
    4. Диск собирался в DVD-lab PRO. Там же нарисовано меню
    5. Меню анимировано и озвучено. Есть деление на главы
    6. Для записи на болванки рекомендую использовать ImgBurn
    7. Всё, приятного просмотра
    Скачать .torrent

    Скачать торрент-файл бесплатно и на максимальной скорости!

    Как скачивать? · Что такое торрент? · Рейтинг и ограничения

    !ВНИМАНИЕ!
    Сайт не распространяет и не хранит электронные версии произведений, а занимается лишь лишь предоставлением доступа к создаваемому пользователями каталогу ссылок на торрент-файлы, которые содержат только списки хеш-сумм, убедительная просьба с жалобами обращаться напрямую к пользователю. Файлы для обмена на трекере предоставлены пользователями сайта, и администрация не несёт ответственности за их содержание. Просьба не заливать файлы, защищенные авторскими правами, а также файлы нелегального содержания!


    _________________
    [Профиль] [ЛС]
    Показать сообщения:    
    Ответить на тему

    Текущее время: Сегодня, в 20:12

    Часовой пояс: GMT + 2



    Вы не можете начинать темы
    Вы не можете отвечать на сообщения
    Вы не можете редактировать свои сообщения
    Вы не можете удалять свои сообщения
    Вы не можете голосовать в опросах
    Вы не можете прикреплять файлы к сообщениям
    Вы не можете скачивать файлы