BitTorrentTracker PerecTracker.org
BitTorrentTracker PerecTracker.org
    
Регистрация  ·  Вход
 
 · 
Забыли пароль?

  • Офицерские жены / Серии: 1-12 из 12 (Дмитрий Петрунь) [2014, Россия, Драма, WEBRip 720p]

    Ответить на тему
     
    Автор Сообщение

    rechyn

    Создавать темы 10-Май-2015 14:51

           

    [Цитировать]

    Офицерские жены
    Год выпуска: 2014
    Производитель : Россия, Украина, Star Media
    Жанр: Драма
    Продолжительность: 00:44:07 серия
    Cубтитры: нет
    Режиссер: Дмитрий Петрунь
    В ролях: Константин Милованов, Мария Порошина, Ольга Арнтгольц, Павел Делонг, Виктор Хориняк, Юрий Борисов (II), Анастасия Лукьянова, Ольга Макеева, Анна Арефьева, Игорь Писный, Данила Краснощек, Валентин Касьян, Виталий Салий, Инга Нагорная, Роман Курцын, Ольга Олексий, Юлия Паничкина, Ольга Гришина
    Описание: Семейная сага рассказывает о судьбе нескольких поколений женщин семьи Антоновых-Тереховых, а также их ближайшего окружения. В каждом поколении есть героиня по имени Надежда. Временной охват — с 40-х годов 20 века по 2002-й год. В фильме освещены важные для страны и для военных события — репрессии, вторая мировая, Афганистан, участие армии в ликвидации последствий Чернобыльской аварии, межвременье начала 90-х, развал СССР, падение престижа военной службы…
    Рип: nikolspup
    Качество: WEBRip 720p
    Формат: MKV
    Видео кодек: H.264
    Аудио кодек: AC-3
    Видео: MPEG4 Video (H264) 1280x720, ~ 1994 kbps, 25.00fps, 0.087 bit/pixel
    Аудио: AC-3, 2 канала, 48,0 КГц, ~192 kbps, VBR

    MediaInfo

    Общее
    Уникальный идентификатор : 242421422482972560931692858679739345693 (0xB660AAEC8EE18EE29EFCE520B814EB1D)
    Полное имя : F:\Oficerskie.zheny.2015.WEB-DL.(720p).MediaClub\Oficerskie.zheny.(01.seriya).2015.WEB-DL.(720p).MediaClub.mkv
    Формат : Matroska
    Размер файла : 726 Мбайт
    Продолжительность : 45 м.
    Общий поток : 2230 Кбит/сек
    Название фильма : Oficerskie.zheny.(01.seriya).2015.WEB-DL.(720p).MediaClub
    Дата кодирования : UTC 2015-04-26 18:57:51
    Программа кодирования : mkvmerge v5.8.0 ('No Sleep / Pillow') built on Sep 2 2012 15:37:04
    Библиотека кодирования : libebml v1.2.3 + libmatroska v1.3.0
    Видео
    Идентификатор : 1
    Формат : AVC
    Формат/Информация : Advanced Video Codec
    Профиль формата : High@L3.1
    Параметр CABAC формата : Да
    Параметр ReFrames формата : 1 кадр
    Идентификатор кодека : V_MPEG4/ISO/AVC
    Продолжительность : 45 м.
    Битрейт : 1994 Кбит/сек
    Ширина : 1280 пикс.
    Высота : 720 пикс.
    Соотношение сторон : 16:9
    Режим частоты кадров : Переменный
    Частота кадров : 25,000 кадр/сек
    Цветовое пространство : YUV
    Подвыборка цветности : 4:2:0
    Битовая глубина : 8 бит
    Тип развёртки : Прогрессивная
    Бит/(Пиксели*Кадры) : 0.087
    Размер потока : 649 Мбайт (89%)
    Аудио
    Идентификатор : 2
    Формат : AC-3
    Формат/Информация : Audio Coding 3
    Расширение режима : CM (complete main)
    Идентификатор кодека : A_AC3
    Продолжительность : 45 м.
    Вид битрейта : Постоянный
    Битрейт : 192 Кбит/сек
    Каналы : 2 канала
    Расположение каналов : Front: L R
    Частота : 48,0 КГц
    Битовая глубина : 16 бит
    Метод сжатия : С потерями
    Размер потока : 62,5 Мбайт (9%)
    Язык : Russian

    Скриншоты

    Скачать .torrent

    Скачать торрент-файл бесплатно и на максимальной скорости!

    Как скачивать? · Что такое торрент? · Рейтинг и ограничения

    !ВНИМАНИЕ!
    Сайт не распространяет и не хранит электронные версии произведений, а занимается лишь лишь предоставлением доступа к создаваемому пользователями каталогу ссылок на торрент-файлы, которые содержат только списки хеш-сумм, убедительная просьба с жалобами обращаться напрямую к пользователю. Файлы для обмена на трекере предоставлены пользователями сайта, и администрация не несёт ответственности за их содержание. Просьба не заливать файлы, защищенные авторскими правами, а также файлы нелегального содержания!


    _________________
    [Профиль] [ЛС]
    Показать сообщения:    
    Ответить на тему

    Текущее время: Сегодня, в 16:14

    Часовой пояс: GMT + 2



    Вы не можете начинать темы
    Вы не можете отвечать на сообщения
    Вы не можете редактировать свои сообщения
    Вы не можете удалять свои сообщения
    Вы не можете голосовать в опросах
    Вы не можете прикреплять файлы к сообщениям
    Вы не можете скачивать файлы