BitTorrentTracker PerecTracker.org
BitTorrentTracker PerecTracker.org
    
Регистрация  ·  Вход
 
 · 
Забыли пароль?

  • Восхождение Юпитер / Jupiter Ascending (Лана Вачовски / Lana Wachowski ) [2015, США, Великобритания, Фантастика, боевик, приключения, BDRip, HD (720p)] DUB + Original + sub (rus, eng, ukr)

    Ответить на тему
     
    Автор Сообщение

    rechyn

    Создавать темы 10-Май-2015 04:54

           

    [Цитировать]

    Восхождение Юпитер / Jupiter Ascending
    «Expand your universe»
    5.841 / 10 5.70 / 10
    -Год выпуска: 2015
    Страна: США, Великобритания
    Жанр: Фантастика, боевик, приключения
    Продолжительность: 02:07:34
    Перевод: Дублированный (iTunes)
    Оригинальная аудиодорожка: Есть
    Cубтитры: Русские форсированные, Русские, Английские, Украинские форсированные
    Режиссёр: Энди Вачовски, Лана Вачовски
    Сценарий: Энди Вачовски, Лана Вачовски
    Продюсер: Грант Хилл, Энди Вачовски, Лана Вачовски
    Оператор: Джон Толл
    Композитор: Майкл Джаккино
    Художник: Хью Бэйтап, Дэвид Оллдей, Доминик Химэн
    Монтаж: Александр Бернер
    В ролях: Ченнинг Татум, Мила Кунис, Шон Бин, Эдди Редмэйн, Дуглас Бут, Таппенс Мидлтон, Никки Амука-Бёрд, Кристина Коул, Николас А. Ньюман, Рамон Тикарам
    Бюджет: $176 000 000
    Сборы в США: $47 387 723
    Сборы в мире: + $134 500 000 = $181 887 723
    Сборы в России: $9 227 900
    Мировая премьера: 27 января 2015
    Премьера (РФ): 5 февраля 2015, «Каро-Премьер»
    Релиз на DVD: 14 мая 2015, «CP Дистрибуция»
    Релиз на Blu-Ray: 14 мая 2015, «CP Дистрибуция»
    Описание: Юпитер Джонс родилась под ночным небом, и все знаки предсказывали, что девочке предстоят великие свершения. Юпитер выросла и каждый день видит во сне звезды, но просыпается в жесткой реальности, где она работает уборщицей и моет туалеты. Личная жизнь Юпитер тоже оставляет желать лучшего, пока девушка не встречает Кейна. Кейн, бывший военный охотник, прибывает на Землю, чтобы отыскать Юпитер и раскрыть девушке ее истинное предназначение. Благодаря своим генетическим особенностям Юпитер становится претенденткой невероятного наследия, способного изменить равновесие во Вселенной.-Качество исходника: HDClub, Восхождение Юпитер / Jupiter Ascending (2015) 1080p BD-Remux
    Качество: BDRip
    Тип: HD (720p)
    Контейнер: M4V
    Видео: H.264, 1280x536, 2.40:1, 3 500 Kbps, 23.976 fps
    Аудио 1: Русский/Дублированный (iTunes), AAC / 2.0 / 157 Kbps / 48.0 KHz
    Аудио 2: Английский/Оригинальная дорожка , AAC / 2.0 / 158 Kbps / 48.0 KHz
    Аудио 3: Украинский/Дублированный (iTunes), AAC / 2.0 / 159 Kbps / 48.0 KHz
    Аудио 4: Русский/Дублированный (iTunes), AC-3 / 5.1 / 384 Kbps / 48.0 KHz
    Аудио 5: Английский/Оригинальная дорожка , AC-3 / 5.1 / 640 Kbps / 48.0 KHz
    Субтитры 1: Русские форсированные
    Субтитры 2: Русские полные
    Субтитры 3: Английские полные
    Субтитры 4: Украинские форсированные
    -

    iTunes Meta Tags

    Sort Name: Jupiter Ascending
    XID: Apple:vendor_id:2015-505966
    contentID: 960831851
    Copyright: © 2014 Warner Bros. Entertainment Inc., WV Films IV LLC, and Ratpac-Dune Entertainment LLC. All Rights Reserved.
    Screenwriters: Энди Вачовски, Лана Вачовски
    Producers: Грант Хилл, Энди Вачовски, Лана Вачовски
    Director: Энди Вачовски, Лана Вачовски
    Cast: Ченнинг Татум, Мила Кунис, Шон Бин, Эдди Редмэйн, Дуглас Бут, Таппенс Мидлтон, Никки Амука-Бёрд, Кристина Коул, Николас А. Ньюман
    Studio: Warner Bros.
    Rating Annotation: Rated PG-13 for some violence, sequences of sci-fi action, some suggestive content and partial nudity.
    Rating: 10
    Long Description: Юпитер Джонс родилась под ночным небом, и все знаки предсказывали, что девочке предстоят великие свершения. Юпитер выросла и каждый день видит во сне звезды, но просыпается в жесткой реальности, где она работает уборщицей и моет туалеты. Личная жизнь Юпитер тоже оставляет желать лучшего, пока девушка не встречает Кейна. Кейн, бывший военный охотник, прибывает на Землю, чтобы отыскать Юпитер и раскрыть девушке ее истинное предназначение. Благодаря своим генетическим особенностям Юпитер становится претенденткой невероятного наследия, способного изменить равновесие во Вселенной.
    Description: Юпитер Джонс родилась под ночным небом, и все знаки предсказывали, что девочке предстоят великие свершения. Юпитер выросла и каждый день видит во сне звезды, но просыпается в жесткой реальности, где она работает уборщицей и моет туалеты. Личная жизнь Юпитер тоже оставляет желать лучшего, пока девушка не встречает Кейна. Кейн, бывший военный охотник, прибывает на Землю, чтобы отыскать Юпитер и раскрыть девушке ее истинное предназначение...
    Release Date: 2015-01-27T08:00:00Z
    Genre: Action & Adventure
    Artist: Lana Wachowski & Andy Wachowski
    Name: Jupiter Ascending

    MediaInfo

    General
    Complete name                            : /Users/imac/HandBrake/Jupiter Ascending (720p HD).m4v
    Format                                   : MPEG-4
    Codec ID                                 : M4V
    File size                                : 4.46 GiB
    Duration                                 : 2h 7mn
    Overall bit rate mode                    : Variable
    Overall bit rate                         : 5 006 Kbps
    Movie name                               : Jupiter Ascending
    Performer                                : Lana Wachowski & Andy Wachowski
    Genre                                    : Action & Adventure
    Recorded date                            : UTC 2015-01-27 08:00:00
    Encoded date                             : UTC 2015-05-09 23:05:21
    Tagged date                              : UTC 2015-05-09 23:08:07
    Copyright                                : © 2014 Warner Bros. Entertainment Inc., WV Films IV LLC, and Ratpac-Dune Entertainment LLC. All Rights Reserved.
    Cover                                    : Yes
    sonm                                     : Jupiter Ascending
    desc                                     : Юпитер Джонс родилась под ночным небом, и все знаки предсказывали, что девочке предстоят великие свершения. Юпитер выросла и каждый день видит во сне звезды, но просыпается в жесткой реальности, где она работает уборщицей и моет туалеты. Личная жизнь Юпитер тоже оставляет желать лучшего, пока девушка не встречает Кейна. Кейн, бывший военный охотник, прибывает на Землю, чтобы отыскать Юпитер и раскрыть девушке ее истинное предназначение...
    ldes                                     : Юпитер Джонс родилась под ночным небом, и все знаки предсказывали, что девочке предстоят великие свершения. Юпитер выросла и каждый день видит во сне звезды, но просыпается в жесткой реальности, где она работает уборщицей и моет туалеты. Личная жизнь Юпитер тоже оставляет желать лучшего, пока девушка не встречает Кейна. Кейн, бывший военный охотник, прибывает на Землю, чтобы отыскать Юпитер и раскрыть девушке ее истинное предназначение. Благодаря своим генетическим особенностям Юпитер становится претенденткой невероятного наследия, способного изменить равновесие во Вселенной.
    hdvd                                     : 1
    stik                                     : 9
    rtng                                     : 0
    cnID                                     : 960831851
    xid                                      : Apple:vendor_id:2015-505966
    iTunEXTC                                 : mpaa|PG-13|300|Rated PG-13 for some violence, sequences of sci-fi action, some suggestive content and partial nudity.
    iTunMOVI                                 : <?xml version=\"1.0\" encoding=\"UTF-8\"?> / <!DOCTYPE plist PUBLIC \"-//Apple//DTD PLIST 1.0//EN\" \"http://anonym.to/?http://www.apple.com/DTDs/PropertyList-1.0.dtd\"> / <plist version=\"1.0\"> / <dict> /  <key>cast</key> /  <array> /   <dict> /    <key>name</key> /    <string>Ченнинг Татум</string> /   </dict> /   <dict> /    <key>name</key> /    <string>Мила Кунис</string> /   </dict> /   <dict> /    <key>name</key> /    <string>Шон Бин</string> /   </dict> /   <dict> /    <key>name</key> /    <string>Эдди Редмэйн</string> /   </dict> /   <dict> /    <key>name</key> /    <string>Дуглас Бут</string> /   </dict> /   <dict> /    <key>name</key> /    <string>Таппенс Мидлтон</string> /   </dict> /   <dict> /    <key>name</key> /    <string>Никки Амука-Бёрд</string> /   </dict> /   <dict> /    <key>name</key> /    <string>Кристина Коул</string> /   </dict> /   <dict> /    <key>name</key> /    <string>Николас А. Ньюман</string> /   </dict> /  </array> /  <key>directors</key> /  <array> /   <dict> /    <key>name</key> /    <string>Энди Вачовски</string> /   </dict> /   <dict> /    <key>name</key> /    <string>Лана Вачовски</string> /   </dict> /  </array> /  <key>producers</key> /  <array> /   <dict> /    <key>name</key> /    <string>Грант Хилл</string> /   </dict> /   <dict> /    <key>name</key> /    <string>Энди Вачовски</string> /   </dict> /   <dict> /    <key>name</key> /    <string>Лана Вачовски</string> /   </dict> /  </array> /  <key>screenwriters</key> /  <array> /   <dict> /    <key>name</key> /    <string>Энди Вачовски</string> /   </dict> /   <dict> /    <key>name</key> /    <string>Лана Вачовски</string> /   </dict> /  </array> /  <key>studio</key> /  <string>Warner Bros.</string> / </dict> / </plist>
    Video #1
    ID                                       : 1
    Format                                   : AVC
    Format/Info                              : Advanced Video Codec
    Format profile                           : High@L3.1
    Format settings, CABAC                   : No
    Format settings, ReFrames                : 3 frames
    Codec ID                                 : avc1
    Codec ID/Info                            : Advanced Video Coding
    Duration                                 : 2h 7mn
    Bit rate mode                            : Variable
    Bit rate                                 : 3 500 Kbps
    Width                                    : 1 280 pixels
    Height                                   : 536 pixels
    Display aspect ratio                     : 2.40:1
    Frame rate mode                          : Variable
    Frame rate                               : 23.976 fps
    Minimum frame rate                       : 23.974 fps
    Maximum frame rate                       : 23.981 fps
    Color space                              : YUV
    Chroma subsampling                       : 4:2:0
    Bit depth                                : 8 bits
    Scan type                                : Progressive
    Bits/(Pixel*Frame)                       : 0.213
    Stream size                              : 3.12 GiB (70%)
    Writing library                          : x264 core 142 r2479 dd79a61
    Encoding settings                        : cabac=0 / ref=3 / deblock=1:-3:-3 / analyse=0x3:0x113 / me=umh / subme=9 / psy=1 / psy_rd=1.00:0.15 / mixed_ref=1 / me_range=32 / chroma_me=1 / trellis=0 / 8x8dct=1 / cqm=0 / deadzone=21,11 / fast_pskip=0 / chroma_qp_offset=-2 / threads=36 / lookahead_threads=3 / sliced_threads=0 / nr=0 / decimate=0 / interlaced=0 / bluray_compat=0 / constrained_intra=0 / bframes=3 / b_pyramid=0 / b_adapt=2 / b_bias=0 / direct=1 / weightb=0 / open_gop=0 / weightp=0 / keyint=240 / keyint_min=24 / scenecut=40 / intra_refresh=0 / rc_lookahead=40 / rc=2pass / mbtree=1 / bitrate=3500 / ratetol=1.0 / qcomp=0.65 / qpmin=0 / qpmax=69 / qpstep=4 / cplxblur=20.0 / qblur=0.5 / vbv_maxrate=9500 / vbv_bufsize=9500 / nal_hrd=none / filler=0 / ip_ratio=1.40 / aq=1:1.10
    Language                                 : English
    Encoded date                             : UTC 2015-05-09 23:05:21
    Tagged date                              : UTC 2015-05-09 23:05:30
    Color primaries                          : BT.709-5, BT.1361, IEC 61966-2-4, SMPTE RP177
    Transfer characteristics                 : BT.709-5, BT.1361
    Matrix coefficients                      : BT.709-5, BT.1361, IEC 61966-2-4 709, SMPTE RP177
    Video #2
    ID                                       : 12
    Format                                   : JPEG
    Codec ID                                 : jpeg
    Duration                                 : 2h 7mn
    Bit rate mode                            : Variable
    Bit rate                                 : 518 bps
    Width                                    : 640 pixels
    Height                                   : 268 pixels
    Display aspect ratio                     : 2.40:1
    Frame rate mode                          : Variable
    Frame rate                               : 0.002 fps
    Minimum frame rate                       : 0.001 fps
    Maximum frame rate                       : 0.003 fps
    Color space                              : YUV
    Chroma subsampling                       : 4:2:0
    Bit depth                                : 8 bits
    Compression mode                         : Lossy
    Bits/(Pixel*Frame)                       : 1.510
    Stream size                              : 443 KiB (0%)
    Language                                 : English
    Encoded date                             : UTC 2015-05-09 23:06:30
    Tagged date                              : UTC 2015-05-09 23:06:30
    Audio #1
    ID                                       : 2
    Format                                   : AAC
    Format/Info                              : Advanced Audio Codec
    Format profile                           : LC
    Codec ID                                 : 40
    Duration                                 : 2h 7mn
    Bit rate mode                            : Variable
    Bit rate                                 : 157 Kbps
    Maximum bit rate                         : 245 Kbps
    Channel(s)                               : 2 channels
    Channel positions                        : Front: L R
    Sampling rate                            : 48.0 KHz
    Compression mode                         : Lossy
    Stream size                              : 143 MiB (3%)
    Language                                 : Russian
    Encoded date                             : UTC 2015-05-09 23:05:21
    Tagged date                              : UTC 2015-05-09 23:05:34
    Audio #2
    ID                                       : 3
    Format                                   : AAC
    Format/Info                              : Advanced Audio Codec
    Format profile                           : LC
    Codec ID                                 : 40
    Duration                                 : 2h 7mn
    Bit rate mode                            : Variable
    Bit rate                                 : 158 Kbps
    Maximum bit rate                         : 236 Kbps
    Channel(s)                               : 2 channels
    Channel positions                        : Front: L R
    Sampling rate                            : 48.0 KHz
    Compression mode                         : Lossy
    Stream size                              : 145 MiB (3%)
    Language                                 : English
    Encoded date                             : UTC 2015-05-09 23:05:21
    Tagged date                              : UTC 2015-05-09 23:06:27
    Audio #3
    ID                                       : 4
    Format                                   : AAC
    Format/Info                              : Advanced Audio Codec
    Format profile                           : LC
    Codec ID                                 : 40
    Duration                                 : 2h 7mn
    Bit rate mode                            : Variable
    Bit rate                                 : 159 Kbps
    Maximum bit rate                         : 228 Kbps
    Channel(s)                               : 2 channels
    Channel positions                        : Front: L R
    Sampling rate                            : 48.0 KHz
    Compression mode                         : Lossy
    Stream size                              : 145 MiB (3%)
    Language                                 : Ukrainian
    Encoded date                             : UTC 2015-05-09 23:05:21
    Tagged date                              : UTC 2015-05-09 23:06:27
    Audio #4
    ID                                       : 5
    Format                                   : AC-3
    Format/Info                              : Audio Coding 3
    Mode extension                           : CM (complete main)
    Format settings, Endianness              : Big
    Codec ID                                 : ac-3
    Duration                                 : 2h 7mn
    Bit rate mode                            : Constant
    Bit rate                                 : 384 Kbps
    Channel(s)                               : 6 channels
    Channel positions                        : Front: L C R, Side: L R, LFE
    Sampling rate                            : 48.0 KHz
    Bit depth                                : 16 bits
    Compression mode                         : Lossy
    Stream size                              : 350 MiB (8%)
    Language                                 : Russian
    Encoded date                             : UTC 2015-05-09 23:05:21
    Tagged date                              : UTC 2015-05-09 23:06:27
    Audio #5
    ID                                       : 6
    Format                                   : AC-3
    Format/Info                              : Audio Coding 3
    Mode extension                           : CM (complete main)
    Format settings, Endianness              : Big
    Codec ID                                 : ac-3
    Duration                                 : 2h 7mn
    Bit rate mode                            : Constant
    Bit rate                                 : 640 Kbps
    Channel(s)                               : 6 channels
    Channel positions                        : Front: L C R, Side: L R, LFE
    Sampling rate                            : 48.0 KHz
    Bit depth                                : 16 bits
    Compression mode                         : Lossy
    Stream size                              : 584 MiB (13%)
    Language                                 : English
    Encoded date                             : UTC 2015-05-09 23:05:21
    Tagged date                              : UTC 2015-05-09 23:06:27
    Text #1
    ID                                       : 7
    Format                                   : Timed text
    Muxing mode                              : sbtl
    Codec ID                                 : tx3g
    Duration                                 : 2h 7mn
    Bit rate mode                            : Variable
    Bit rate                                 : 1 bps
    Stream size                              : 738 Bytes (0%)
    Language                                 : Russian
    Encoded date                             : UTC 2015-05-09 23:05:21
    Tagged date                              : UTC 2015-05-09 23:06:24
    Text #2
    ID                                       : 8
    Format                                   : Timed text
    Muxing mode                              : sbtl
    Codec ID                                 : tx3g
    Duration                                 : 2h 7mn
    Bit rate mode                            : Variable
    Bit rate                                 : 85 bps
    Stream size                              : 79.2 KiB (0%)
    Language                                 : Russian
    Encoded date                             : UTC 2015-05-09 23:05:21
    Tagged date                              : UTC 2015-05-09 23:06:24
    Text #3
    ID                                       : 9
    Format                                   : Timed text
    Muxing mode                              : sbtl
    Codec ID                                 : tx3g
    Duration                                 : 1h 57mn
    Bit rate mode                            : Variable
    Bit rate                                 : 60 bps
    Stream size                              : 52.2 KiB (0%)
    Language                                 : English
    Encoded date                             : UTC 2015-05-09 23:05:21
    Tagged date                              : UTC 2015-05-09 23:06:22
    Text #4
    ID                                       : 10
    Format                                   : Timed text
    Muxing mode                              : sbtl
    Codec ID                                 : tx3g
    Duration                                 : 2h 7mn
    Bit rate mode                            : Variable
    Bit rate                                 : 1 bps
    Stream size                              : 1.35 KiB (0%)
    Language                                 : Ukrainian
    Encoded date                             : UTC 2015-05-09 23:05:21
    Tagged date                              : UTC 2015-05-09 23:06:24
    Text #5
    ID                                       : 11
    Format                                   : Apple text
    Codec ID                                 : text
    Duration                                 : 2h 7mn
    Bit rate mode                            : Variable
    Bit rate                                 : 0 bps
    Stream size                              : 327 Bytes (0%)
    Language                                 : English
    Encoded date                             : UTC 2015-05-09 23:06:27
    Tagged date                              : UTC 2015-05-09 23:06:27
    Menu
    00:00:00.000                             : Chapter 1
    00:08:45.108                             : Chapter 2
    00:19:31.253                             : Chapter 3
    00:31:33.058                             : Chapter 4
    00:41:42.625                             : Chapter 5
    00:49:35.723                             : Chapter 6
    00:58:29.715                             : Chapter 7
    01:09:20.114                             : Chapter 8
    01:19:07.284                             : Chapter 9
    01:29:09.135                             : Chapter 10
    01:36:08.596                             : Chapter 11
    01:43:26.659                             : Chapter 12
    01:52:58.855                             : Chapter 13
    01:57:59.572                             : Chapter 14

    x264 лог

    x264 [info]: frame I:2130  Avg QP:13.30  size: 92245
    x264 [info]: frame P:76616 Avg QP:15.94  size: 29716
    x264 [info]: frame B:104774 Avg QP:17.79  size:  8323
    x264 [info]: consecutive B-frames: 10.3% 36.3% 13.4% 40.0%
    x264 [info]: mb I  I16..4:  7.4% 59.1% 33.5%
    x264 [info]: mb P  I16..4:  2.3%  8.0%  3.8%  P16..4: 41.8% 24.8% 10.6%  0.0%  0.0%    skip: 8.7%
    x264 [info]: mb B  I16..4:  0.2%  1.0%  0.6%  B16..8: 46.2% 12.5%  1.8%  direct: 3.6%  skip:34.2%  L0:40.6% L1:52.0% BI: 7.4%
    x264 [info]: 8x8 transform intra:56.9% inter:39.6%
    x264 [info]: coded y,uvDC,uvAC intra: 79.9% 83.6% 64.8% inter: 22.4% 22.6% 14.3%
    x264 [info]: i16 v,h,dc,p: 36% 14%  9% 41%
    x264 [info]: i8 v,h,dc,ddl,ddr,vr,hd,vl,hu: 11%  8%  7% 11% 14% 13% 13% 11% 12%
    x264 [info]: i4 v,h,dc,ddl,ddr,vr,hd,vl,hu: 10%  8%  5% 13% 17% 14% 14% 10%  9%
    x264 [info]: i8c dc,h,v,p: 51% 17% 19% 13%
    x264 [info]: ref P L0: 72.7% 15.9% 11.3%
    x264 [info]: ref B L0: 82.2% 17.8%
    x264 [info]: kb/s:3496.32

    Скриншоты

    -

    Релиз подготовлен для просмотра на Apple TV, iPad, iPhone, iPod Touch.
    Для просмотра данного релиза на компьютере с ОС Windows рекомендуется использовать VLC media player
    Скачать .torrent

    Скачать торрент-файл бесплатно и на максимальной скорости!

    Как скачивать? · Что такое торрент? · Рейтинг и ограничения

    !ВНИМАНИЕ!
    Сайт не распространяет и не хранит электронные версии произведений, а занимается лишь лишь предоставлением доступа к создаваемому пользователями каталогу ссылок на торрент-файлы, которые содержат только списки хеш-сумм, убедительная просьба с жалобами обращаться напрямую к пользователю. Файлы для обмена на трекере предоставлены пользователями сайта, и администрация не несёт ответственности за их содержание. Просьба не заливать файлы, защищенные авторскими правами, а также файлы нелегального содержания!


    _________________
    [Профиль] [ЛС]
    Показать сообщения:    
    Ответить на тему

    Текущее время: Сегодня, в 08:17

    Часовой пояс: GMT + 2



    Вы не можете начинать темы
    Вы не можете отвечать на сообщения
    Вы не можете редактировать свои сообщения
    Вы не можете удалять свои сообщения
    Вы не можете голосовать в опросах
    Вы не можете прикреплять файлы к сообщениям
    Вы не можете скачивать файлы