BitTorrentTracker PerecTracker.org
BitTorrentTracker PerecTracker.org
    
Регистрация  ·  Вход
 
 · 
Забыли пароль?

  • Подводная лодка Т-9 (Александр Иванов) [1943, Драма, военный, DVDRip]

    Ответить на тему
     
    Автор Сообщение

    Light

    Создавать темы 09-Май-2015 16:18

           

    [Цитировать]

    Подводная лодка Т-9
    Жанр: Драма, военный
    Год выпуска: 1943
    Продолжительность: 01:06:28
    Режиссёр: Александр Иванов
    В ролях: Олег Жаков, Исмаил Дагестанлы, Борис Чинкин, Виктор Шарлахов, Александр Аллегров, Борис Байков, Кязим Зия, Мовсум Санани
    Описание: Великая Отечественная война. Советская подводная лодка Т-9, пройдя через минные заграждения Северного моря, проникает во вражеский порт. Моряки топят транспортные суда противника, но вскоре узнают, что опоздали — вражеские войска и вооружения уже сгружены и направлены на фронт. Капитан Костров оказывается в ситуации, когда боевое задание почти невыполнимо, но он должен его выполнить — для него это вопрос чести или бесчестия.- | Премьера (мир): 22 сентября 1943 | Семпл-Дополнительная информация:
    - сценарий: Александр Штейн, Иоган Зельцер
    - оператор: Николай Ренков, Мухтар Дадашев
    - композитор: Борис Зейдман
    - художник: Юрий Швец-Качество: DVDRip
    Формат: AVI
    Видео: 688x528 (1.30:1), 25 fps, XviD ~2163 kbp, 0.24 bit/pixel
    Аудио: 48 kHz, AC3, 1/0 (C) ch, ~192 kbps

    Подробные технические данные

    GeneralComplete name : Podvodnaya.lodka.Т-9_DVDRip_1943_Olu6ka.aviFormat : AVIFormat/Info : Audio Video InterleaveFile size : 1.10 GiBDuration : 1h 6mnOverall bit rate : 2 366 KbpsWriting application : VirtualDubMod 1.5.10.3Writing library : VirtualDubMod build 2550/release
    VideoID : 0Format : MPEG-4 VisualFormat profile : Advanced Simple@L5Format settings, BVOP : 1Format settings, QPel : NoFormat settings, GMC : No warppointsFormat settings, Matrix : CustomCodec ID : XVIDCodec ID/Hint : XviDDuration : 1h 6mnBit rate : 2 164 KbpsWidth : 688 pixelsHeight : 528 pixelsDisplay aspect ratio : 4:3Frame rate : 25.000 fpsColor space : YUVChroma subsampling : 4:2:0Bit depth : 8 bitsScan type : ProgressiveCompression mode : LossyBits/(Pixel*Frame) : 0.238Stream size : 1.00 GiB (91%)Writing library : XviD 73
    AudioID : 1Format : AC-3Format/Info : Audio Coding 3Mode extension : CM (complete main)Format settings, Endianness : BigCodec ID : 2000Duration : 1h 6mnBit rate mode : ConstantBit rate : 192 KbpsChannel count : 1 channelChannel positions : Front: CSampling rate : 48.0 KHzBit depth : 16 bitsCompression mode : LossyStream size : 91.3 MiB (8%)Alignment : Split accross interleavesInterleave, duration : 40 ms (1.00 video frame)Interleave, preload duration : 500 ms

    Скриншоты

    Спасибо Valeronius и AVV_UA за исходник!
    Раздача от группы:
    Скачать .torrent

    Скачать торрент-файл бесплатно и на максимальной скорости!

    Как скачивать? · Что такое торрент? · Рейтинг и ограничения

    !ВНИМАНИЕ!
    Сайт не распространяет и не хранит электронные версии произведений, а занимается лишь лишь предоставлением доступа к создаваемому пользователями каталогу ссылок на торрент-файлы, которые содержат только списки хеш-сумм, убедительная просьба с жалобами обращаться напрямую к пользователю. Файлы для обмена на трекере предоставлены пользователями сайта, и администрация не несёт ответственности за их содержание. Просьба не заливать файлы, защищенные авторскими правами, а также файлы нелегального содержания!


    _________________
    [Профиль] [ЛС]
    Показать сообщения:    
    Ответить на тему

    Текущее время: Сегодня, в 23:55

    Часовой пояс: GMT + 2



    Вы не можете начинать темы
    Вы не можете отвечать на сообщения
    Вы не можете редактировать свои сообщения
    Вы не можете удалять свои сообщения
    Вы не можете голосовать в опросах
    Вы не можете прикреплять файлы к сообщениям
    Вы не можете скачивать файлы