BitTorrentTracker PerecTracker.org
BitTorrentTracker PerecTracker.org
    
Регистрация  ·  Вход
 
 · 
Забыли пароль?

  • Самые первые (Анатолий Граник) [1961, Драма, SATRip-AVC]

    Ответить на тему
     
    Автор Сообщение

    Light

    Создавать темы 09-Май-2015 16:18

           

    [Цитировать]

    Cамые первые
    Жанр: Драма
    Страна: СССР
    Студия: Ленфильм
    Год выпуска: 1961
    Продолжительность: 01:36:47
    Режиссёр: Анатолий Граник
    В ролях:
    Игорь Пушкарев ... Сергей Сазонов
    Нина Дробышева ... Наташа
    Павел Махотин ... Александр Васильевич Калугин
    Людмила Шагалова ... Вера Павловна Калугина
    Владимир Честноков ... Андрей Николаевич Аркадьев, академик
    Владимир Самойлов ... Борис Михайлович
    Олег Жаков ... Евгений Алексеевич, начальник медслужбы отряда космонавтов
    Александр Стрельников ... Григорьев
    Павел Кашлаков ... Воронцов
    Станислав Фесюнов ... Виктор
    Виктор Терехов ... Миша
    Лев Бриллиантов ... Соков
    Анатолий Абрамов ... Иван Васильевич
    Иван Дмитриев ... генерал
    Лидия Колпакова ... Осипенко, врач госпиталя ВВС
    Ефим Копелян ... Рубен Григорьевич
    Описание: После испытательного полета летчика Сергея Сазонова (Игорь Пушкарёв) приглашают в группу космонавтов. Начинается интенсивная подготовка к полету в космос: занятия в камере невесомости, постоянная учеба. Сергей решает, что не имеет права встречаться с веселой студенткой Наташей (Нина Дробышева), которую его друзья обвиняют в легкомыслии. Но их телефонный разговор заканчивается тем, что он просит ее выйти за него замуж …
    Дополнительная информация: Релиз:
    Автор рипа: pmv
    Большое спасибо за:
    - Исходник DVB (http://perectracker.org/viewtopic.php?t=4997483) - Cheef mate
    (Запись потока *.ts со спутника Ямал 402, 55° в.д., c ТК «Звезда»).
    Кинопоиск = 6.700 (25) -
    * Съёмки начались ещё до первого полёта человека в космос, а заканчивается картина кадрами торжественного приёма в Кремле первого космонавта Юрия Алексеевича Гагарина.
    * В 2011 году Игорь Пушкарёв за исполнение роли Сергея Сазонова был награждён памятной медалью ЦК КПРФ «50 лет космонавтике»

    ПРОСЬБА к СКАЧАВШИМ. НЕ УХОДИТЕ С РАЗДАЧИ, ПОМОГИТЕ ДРУГИМ СКАЧАТЬ!!!
    ВНИМАНИЕ!!! РИП ФОРМАТА mkv (кодек H.264) ВОСПРОИЗВОДИТСЯ НЕ НА ВСЕХ БЫТОВЫХ ВИДЕОПЛЕЕРАХ!!!
    Качество видео: SATRip
    Формат видео: MKV
    Видео: AVC (H264), 672@757:568 (1.33:1), 25 fps, 2 000 Kbps avg, 0.205 bit/pixel
    Аудио: AC3, 48.0 KHz, stereo (2 ch), 192 Kbps

    MediaInfo

    General
    Complete name : D:\torrents\самые первые (1961).mkv
    Format : Matroska
    File size : 1.48 GiB
    Duration : 1h 36mn
    Overall bit rate : 2 194 Kbps
    Encoded date : UTC 2015-05-02 11:31:12
    Writing application : mkvmerge v7.8.0 ('River Man') 64bit built on Mar 27 2015 16:31:37
    Writing library : libebml v1.3.1 + libmatroska v1.4.2
    Video
    ID : 1
    Format : AVC
    Format/Info : Advanced Video Codec
    Format profile : High@L4.0
    Format settings, CABAC : Yes
    Format settings, ReFrames : 16 frames
    Muxing mode : Container profile=Unknown@4.0
    Codec ID : V_MPEG4/ISO/AVC
    Duration : 1h 36mn
    Bit rate : 1 958 Kbps
    Nominal bit rate : 2 000 Kbps
    Width : 672 pixels
    Height : 568 pixels
    Display aspect ratio : 4:3
    Original display aspect ratio : 1.183
    Frame rate : 25.000 fps
    Resolution : 8 bits
    Colorimetry : 4:2:0
    Scan type : Progressive
    Bits/(Pixel*Frame) : 0.205
    Stream size : 1.32 GiB (89%)
    Writing library : x264 core 130 r2273 b3065e6
    Encoding settings : cabac=1 / ref=16 / deblock=1:0:0 / analyse=0x3:0x133 / me=umh / subme=10 / psy=1 / psy_rd=1.00:0.00 / mixed_ref=1 / me_range=24 / chroma_me=1 / trellis=2 / 8x8dct=1 / cqm=0 / deadzone=21,11 / fast_pskip=1 / chroma_qp_offset=-2 / threads=30 / lookahead_threads=4 / sliced_threads=0 / nr=0 / decimate=1 / interlaced=0 / bluray_compat=0 / constrained_intra=0 / bframes=8 / b_pyramid=2 / b_adapt=2 / b_bias=0 / direct=3 / weightb=1 / open_gop=0 / weightp=2 / keyint=250 / keyint_min=25 / scenecut=40 / intra_refresh=0 / rc_lookahead=60 / rc=2pass / mbtree=1 / bitrate=2000 / ratetol=1.0 / qcomp=0.60 / qpmin=0 / qpmax=69 / qpstep=4 / cplxblur=20.0 / qblur=0.5 / ip_ratio=1.40 / aq=1:1.00
    Audio
    ID : 2
    Format : AC-3
    Format/Info : Audio Coding 3
    Codec ID : A_AC3
    Duration : 1h 36mn
    Bit rate mode : Constant
    Bit rate : 192 Kbps
    Channel(s) : 2 channels
    Channel positions : Front: L R
    Sampling rate : 48.0 KHz
    Video delay : 2ms
    Stream size : 133 MiB (9%)

    Скриншот c названием фильма

    Скриншоты в анаморфном виде

    Скриншоты в разрешении 757 х 568

    Сравнение с раздачей katusha77 от 27-Мая-2011 16:24

    katusha77, avi, 720 х 544, 1.45 Gb < > CaCa48, mkv, 757 x 568, 1.48 Gb
    http://perectracker.org/viewtopic.php?t=3590072
    http://screenshotcomparison.com/comparison/125612
    МОИ РАЗДАЧИ НА РУТРЕКЕРЕ: http://perectracker.org/tracker.php?rid=27390064
    Скачать .torrent

    Скачать торрент-файл бесплатно и на максимальной скорости!

    Как скачивать? · Что такое торрент? · Рейтинг и ограничения

    !ВНИМАНИЕ!
    Сайт не распространяет и не хранит электронные версии произведений, а занимается лишь лишь предоставлением доступа к создаваемому пользователями каталогу ссылок на торрент-файлы, которые содержат только списки хеш-сумм, убедительная просьба с жалобами обращаться напрямую к пользователю. Файлы для обмена на трекере предоставлены пользователями сайта, и администрация не несёт ответственности за их содержание. Просьба не заливать файлы, защищенные авторскими правами, а также файлы нелегального содержания!


    _________________
    [Профиль] [ЛС]
    Показать сообщения:    
    Ответить на тему

    Текущее время: Сегодня, в 02:07

    Часовой пояс: GMT + 2



    Вы не можете начинать темы
    Вы не можете отвечать на сообщения
    Вы не можете редактировать свои сообщения
    Вы не можете удалять свои сообщения
    Вы не можете голосовать в опросах
    Вы не можете прикреплять файлы к сообщениям
    Вы не можете скачивать файлы