Register  ·  Log in
Forgot password?

  • Возвращение сына (Шарип Бейсембаев) [1977, Драма, VHSRip]

    Reply to topic
    Author Message


    Post 09-May-2015 17:18



    Возвращение сына
    Жанр: Драма
    Год выпуска: 1977
    Продолжительность: 01:12:26

    Режиссёр: Шарип Бейсембаев
    В ролях: Виталий Гришко, Лидия Смирнова, Анвар Боранбаев, Михаил Васильев, Константин Воинов, Евдокия Германова, Юрий Горобец, Торша Джабаев, Светлана Меньшикова, Бикен Римова, Меруерт Утекешева, У. Асылбеков, Ирина Мурзаева, Сапаргали Жакишев, Олеся Иванова
    Описание: Война надолго разлучила русскую женщину Евдокию с сыном. Его вырастила и воспитала казашка Рабига. В Казахстане Сергей обрел дом, близких, работу, свою семью. Через тридцать семь лет Евдокия разыскала сына. Теплой и радушной была их встреча на казахской земле. Затем они вместе уехали на родину - Рабига настояла на этом: долг сына - быть с матерью, давшей ему жизнь...

    Доп. информация:
    Благодарность за рип: and70311448

    Качество видео: VHSRip
    Формат видео: AVI
    Видео: 704x432 (1.63:1), 25 fps, XviD build 50 ~2023 kbps avg, 0.27 bit/pixel
    Аудио: 48 kHz, MPEG Layer 3, 2 ch, ~128.00 kbps avg


    Complete name : Vozvrashenie.Syna.1977.Xvid.VHSrip.fenixclub.avi
    Format : AVI
    Format/Info : Audio Video Interleave
    File size : 1.09 GiB
    Duration : 1h 12mn
    Overall bit rate : 2 162 Kbps
    Writing application : VirtualDubMod (build 2540/release)
    Writing library : VirtualDubMod build 2540/release
    ID : 0
    Format : MPEG-4 Visual
    Format profile : Advanced Simple@L5
    Format settings, BVOP : Yes
    Format settings, QPel : No
    Format settings, GMC : No warppoints
    Format settings, Matrix : Custom
    Codec ID : XVID
    Codec ID/Hint : XviD
    Duration : 1h 12mn
    Bit rate : 2 024 Kbps
    Width : 704 pixels
    Height : 432 pixels
    Display aspect ratio : 16:10
    Frame rate : 25.000 fps
    Color space : YUV
    Chroma subsampling : 4:2:0
    Bit depth : 8 bits
    Scan type : Progressive
    Compression mode : Lossy
    Bits/(Pixel*Frame) : 0.266
    Stream size : 1.02 GiB (94%)
    Writing library : XviD 1.2.1 (UTC 2008-12-04)
    ID : 1
    Format : MPEG Audio
    Format version : Version 1
    Format profile : Layer 3
    Mode : Joint stereo
    Mode extension : MS Stereo
    Codec ID : 55
    Codec ID/Hint : MP3
    Duration : 1h 12mn
    Bit rate mode : Constant
    Bit rate : 128 Kbps
    Channel(s) : 2 channels
    Sampling rate : 48.0 KHz
    Compression mode : Lossy
    Stream size : 66.3 MiB (6%)
    Alignment : Aligned on interleaves
    Interleave, duration : 40 ms (1.00 video frame)
    Interleave, preload duration : 504 ms


    Download .torrent

    Download free and at maximum speed!

    How to Download? · What is a torrent? · Ratings and Limitations

    The site does not extend and does not store electronic(digital) versions of products, and only gives access to a reference catalogue created by users on torrent-files which contain only lists of the hash-sums, the earnest entreaty, with complaints(abuse) to access directly to the user. Files for an exchange on tracker are given by users of a site, and the administration does not bear the responsibility for their maintenance. The request to not fill in the files protected by copyrights, and also files of the illegal maintenance!

    [Profile] [PM]
    Display posts from previous:    
    Reply to topic

    The time now is: Today 11:03

    All times are GMT + 3 Hours

    You cannot post new topics in this forum
    You cannot reply to topics in this forum
    You cannot edit your posts in this forum
    You cannot delete your posts in this forum
    You cannot vote in polls in this forum
    You cannot attach files in this forum
    You cannot download files in this forum