BitTorrentTracker PerecTracker.org
BitTorrentTracker PerecTracker.org
    
Регистрация  ·  Вход
 
 · 
Забыли пароль?

  • Первая любовь (Александр Бланк) [1966, Драма, короткометражный, TVRip]

    Ответить на тему
     
    Автор Сообщение

    Light

    Создавать темы 09-Май-2015 16:18

           

    [Цитировать]

    Первая любовь
    Жанр: Драма, короткометражный
    Год выпуска: 1966
    Продолжительность: 00:27:33

    Режиссёр: Александр Бланк
    В ролях: Анастасия Вознесенская, Алексей Сафонов, Мария Сапожникова, Вадим Власов
    Описание: По мотивам одноименного рассказа Владимира Богомолова.
    Один из очередных вызовов во время ночного дежурства врача скорой помощи Сергея Алексеевича, пробуждает в герое воспоминания о первой любви к фронтовой медсестре.

    Доп. информация: Этот фильм - студенческая работа режиссера Александра Бланка и оператора Павла Лебешева.

    Качество видео: TVRip
    Формат видео: AVI
    Видео: 720x544 (1.32:1), 25 fps, XviD MPEG-4 ~1505 kbps avg, 0.15 bit/pixel
    Аудио: 48 kHz, MPEG Layer 3, 2 ch, ~128.00 kbps avg

    MediaInfo

    Complete name : Pervaya.lyubov'.1966.TVRip.fenixclub.avi
    Format : AVI
    Format/Info : Audio Video Interleave
    File size : 324 MiB
    Duration : 27mn 32s
    Overall bit rate : 1 644 Kbps
    Writing application : VirtualDubModRus 1.5.10.2 (build 2542/release)
    Writing library : VirtualDub build 32842/release
    Video
    ID : 0
    Format : MPEG-4 Visual
    Format profile : Advanced Simple@L5
    Format settings, BVOP : Yes
    Format settings, QPel : No
    Format settings, GMC : No warppoints
    Format settings, Matrix : Default (H.263)
    Codec ID : XVID
    Codec ID/Hint : XviD
    Duration : 27mn 32s
    Bit rate : 1 506 Kbps
    Width : 720 pixels
    Height : 544 pixels
    Display aspect ratio : 4:3
    Frame rate : 25.000 fps
    Color space : YUV
    Chroma subsampling : 4:2:0
    Bit depth : 8 bits
    Scan type : Progressive
    Compression mode : Lossy
    Bits/(Pixel*Frame) : 0.154
    Stream size : 297 MiB (92%)
    Writing library : XviD 73
    Audio
    ID : 1
    Format : MPEG Audio
    Format version : Version 1
    Format profile : Layer 3
    Mode : Joint stereo
    Mode extension : MS Stereo
    Codec ID : 55
    Codec ID/Hint : MP3
    Duration : 27mn 32s
    Bit rate mode : Constant
    Bit rate : 128 Kbps
    Channel(s) : 2 channels
    Sampling rate : 48.0 KHz
    Compression mode : Lossy
    Stream size : 25.2 MiB (8%)
    Alignment : Split accross interleaves
    Interleave, duration : 40 ms (1.00 video frame)
    Interleave, preload duration : 500 ms

    Скриншоты


    Скачать .torrent

    Скачать торрент-файл бесплатно и на максимальной скорости!

    Как скачивать? · Что такое торрент? · Рейтинг и ограничения

    !ВНИМАНИЕ!
    Сайт не распространяет и не хранит электронные версии произведений, а занимается лишь лишь предоставлением доступа к создаваемому пользователями каталогу ссылок на торрент-файлы, которые содержат только списки хеш-сумм, убедительная просьба с жалобами обращаться напрямую к пользователю. Файлы для обмена на трекере предоставлены пользователями сайта, и администрация не несёт ответственности за их содержание. Просьба не заливать файлы, защищенные авторскими правами, а также файлы нелегального содержания!


    _________________
    [Профиль] [ЛС]
    Показать сообщения:    
    Ответить на тему

    Текущее время: Сегодня, в 16:06

    Часовой пояс: GMT + 2



    Вы не можете начинать темы
    Вы не можете отвечать на сообщения
    Вы не можете редактировать свои сообщения
    Вы не можете удалять свои сообщения
    Вы не можете голосовать в опросах
    Вы не можете прикреплять файлы к сообщениям
    Вы не можете скачивать файлы