BitTorrentTracker PerecTracker.org
BitTorrentTracker PerecTracker.org
    
Регистрация  ·  Вход
 
 · 
Забыли пароль?

  • Пчёлка Майя / Maya The Bee – Movie (Алекс Стадерманн / Alexs Stadermann) [2014, Мультфильм, фэнтези, приключения, BDRip] Dub

    Ответить на тему
     
    Автор Сообщение

    rechyn

    Создавать темы 09-Май-2015 16:18

           

    [Цитировать]

    Пчёлка Майя / Maya The Bee – Movie«Невероятно сладкая история»-Страна: Австралия, Германия | Buzz Studios
    Жанр: фэнтези, приключения
    Продолжительность: 01:28:10
    Год выпуска: 2014
    Перевод: Профессиональный (полное дублирование) iTunes
    Русские субтитры: нет
    Режиссёр: Алекс Стадерманн / Alexs Stadermann
    Роли озвучивали: Нина Шаттон, Коди Смит-МакФи, Ноа Тейлор, Джеки Уивер, Ричард Роксбург, Мириам Маргулис, Джастин Кларк, Энди МакФи, Косма Шива Хаген, Коко Джек Гиллис-ОписаниеЛегендарная пчелка доросла до большого экрана. Любопытная Пчелка Майя всегда в поисках приключений и с готовностью перевернет все в улье с ног на голову, чем нередко выводит из себя наставницу госпожу Кассандру. Впрочем, в улье случилось гораздо более глобальное несчастье — похищен королевский нектар, эликсир жизни пчелиной Королевы! Советница монарха Жужжала обвиняет во всем ос и выставляет Майю их сообщницей. Вместе со своим лучшим другом Уилли отважная пчелка вынуждена отправиться в полное опасностей путешествие, чтобы разыскать украденную ценность и спасти жизнь своей Королеве.- | | Сэмпл | Совместный релиз:
    и -Качество: BDRip Maya.the.Bee.Movie.2014.1080p.2D+3D.ESP.Blu-ray.AVC.DTS-HD.MA.5.1-ReHD
    Формат: AVI
    Видео: 720x384 (1.88:1), 23.976 fps, XviD ~1977 kbps, 0.30 bit/pixel
    Аудио:: 48 kHz, AC3, 3/2 (L,C,R,l,r) + LFE ch, ~384 kbps (Русский)
    Субтитры: отсутствуют

    MI

    GeneralComplete name : Maya The Bee – Movie.BDRip.2014_Olu6ka.aviFormat : AVIFormat/Info : Audio Video InterleaveFile size : 1.46 GiBDuration : 1h 28mnOverall bit rate : 2 371 KbpsWriting application : VirtualDubModRus 1.5.10.2 (build 2542/release)Writing library : VirtualDubMod build 2542/release
    VideoID : 0Format : MPEG-4 VisualFormat profile : Advanced Simple@L5Format settings, BVOP : 1Format settings, QPel : NoFormat settings, GMC : No warppointsFormat settings, Matrix : CustomCodec ID : XVIDCodec ID/Hint : XviDDuration : 1h 28mnBit rate : 1 977 KbpsWidth : 720 pixelsHeight : 384 pixelsDisplay aspect ratio : 1.85:1Frame rate : 23.976 fpsColor space : YUVChroma subsampling : 4:2:0Bit depth : 8 bitsScan type : ProgressiveCompression mode : LossyBits/(Pixel*Frame) : 0.298Stream size : 1.22 GiB (83%)Writing library : XviD 73
    AudioID : 1Format : AC-3Format/Info : Audio Coding 3Mode extension : CM (complete main)Format settings, Endianness : BigCodec ID : 2000Duration : 1h 28mnBit rate mode : ConstantBit rate : 384 KbpsChannel count : 6 channelsChannel positions : Front: L C R, Side: L R, LFESampling rate : 48.0 KHzBit depth : 16 bitsCompression mode : LossyStream size : 242 MiB (16%)Alignment : Split accross interleavesInterleave, duration : 42 ms (1.00 video frame)Interleave, preload duration : 500 ms

    Скриншоты


    Сравнение

    http://perectracker.org/viewtopic.php?t=4910671
    http://screenshotcomparison.com/comparison/122280
    Рип с 3D-only блюрея.
    Правила раздела Мультфильмы

    Цитата:
    Цитата:

    Раздачи рипов и ремуксов, изготовленных из Blu-Ray Disc 3D (BD3D) ЗАПРЕЩЕНЫ!
    Данный рип - с комбинированного 2D/3D издания
    Скачать .torrent

    Скачать торрент-файл бесплатно и на максимальной скорости!

    Как скачивать? · Что такое торрент? · Рейтинг и ограничения

    !ВНИМАНИЕ!
    Сайт не распространяет и не хранит электронные версии произведений, а занимается лишь лишь предоставлением доступа к создаваемому пользователями каталогу ссылок на торрент-файлы, которые содержат только списки хеш-сумм, убедительная просьба с жалобами обращаться напрямую к пользователю. Файлы для обмена на трекере предоставлены пользователями сайта, и администрация не несёт ответственности за их содержание. Просьба не заливать файлы, защищенные авторскими правами, а также файлы нелегального содержания!


    _________________
    [Профиль] [ЛС]
    Показать сообщения:    
    Ответить на тему

    Текущее время: Сегодня, в 11:01

    Часовой пояс: GMT + 2



    Вы не можете начинать темы
    Вы не можете отвечать на сообщения
    Вы не можете редактировать свои сообщения
    Вы не можете удалять свои сообщения
    Вы не можете голосовать в опросах
    Вы не можете прикреплять файлы к сообщениям
    Вы не можете скачивать файлы