BitTorrentTracker PerecTracker.org
BitTorrentTracker PerecTracker.org
    
Регистрация  ·  Вход
 
 · 
Забыли пароль?

  • Белоснежка / Snow White (Кэмун Сонг, Диана Эшкенази / Kamoon Song, Diane Eskenazi) [1994, Мультфильм, семейный, сказка, DVDRemux] Dub + Original Eng

    Ответить на тему
     
    Автор Сообщение

    vlad

    Создавать темы 09-Май-2015 16:18

           

    [Цитировать]

    Белоснежка / Snow White
    Страна: США (Golden Films)
    Жанр: Мультфильм, семейный, сказка
    Продолжительность: 00:48:46
    Год выпуска: 1994
    Перевод: Профессиональный (дублированный)
    Русские субтитры: нет
    Режиссёр: Кэмун Сонг, Диана Эшкенази / Kamoon Song, Diane Eskenazi-Описание: Музыкальный мультфильм по сказке братьев Гримм о Белоснежке, жившей в замке со злой мачехой-королевой, очень гордившейся своей красотой. Однажды волшебное зеркало поведало королеве, что Белоснежка красивее ее. Чтобы избежать гнева королевы, Белоснежке приходится бежать в чащу леса и поселиться у семи гномов. Но злая королева, притворившись старухой, находит ее там чтобы угостить отравленным яблоком...-Качество: DVDRemux
    Формат: MKV
    Видео: MPEG-2 PAL, 720x576, 25fps, ~3900 Kb/s
    Аудио 1: AC3, 48khz, 2ch, 192 kb/s Русский
    Аудио 2: AC3, 48khz, 2ch, 192 kb/s English
    Субтитры: отсутствуют

    Подробные технические данные

    ОбщееУникальный идентификатор : 198800469174529281839351011092696462533 (0x958F93E124606D69BDB393EC3BC0F4C5)Полное имя : E:\MULTFILMS\The Snow White 1994 (Golden Films)\The Snow White 1994 Golden Films.mkvФормат : MatroskaВерсия формата : Version 4 / Version 2Размер файла : 1,49 ГбайтПродолжительность : 48 м.Режим общего битрейта : ПеременныйОбщий поток : 4385 Кбит/секДата кодирования : UTC 2015-05-05 18:03:56Программа кодирования : mkvmerge v6.7.0 ('Back to the Ground') 32bit built on Jan 8 2014 15:03:17Библиотека кодирования : libebml v1.3.0 + libmatroska v1.4.1
    ВидеоИдентификатор : 1Формат : MPEG VideoВерсия формата : Version 2Профиль формата : Main@MainПараметр BVOP формата : НетПараметр матрицы формата : ВыборочнаяИдентификатор кодека : V_MPEG2Идентификатор кодека/Информация : MPEG 1 or 2 VideoПродолжительность : 48 м.Вид битрейта : ПеременныйБитрейт : 3914 Кбит/секМаксимальный битрейт : 7000 Кбит/секШирина : 720 пикселейВысота : 576 пикселейСоотношение сторон : 4:3Режим частоты кадров : ПостоянныйЧастота кадров : 25,000 кадров/секСтандарт вещания : PALЦветовое пространство : YUVСубдискретизация насыщенности : 4:2:0Битовая глубина : 8 битТип развёртки : ПрогрессивнаяПорядок развёртки : Нижнее поле первоеМетод сжатия : С потерямиБит/(Пиксели*Кадры) : 0.377Временной код первого кадра : 00:00:00:00Оригинал временного кода : Group of pictures headerРазмер потока : 1,33 Гбайт (89%)Default : ДаForced : Нет
    Аудио #1Идентификатор : 2Формат : AC-3Формат/Информация : Audio Coding 3Расширение режима : CM (complete main)Параметр Endianness формата : BigИдентификатор кодека : A_AC3Продолжительность : 48 м.Вид битрейта : ПостоянныйБитрейт : 192 Кбит/секКаналы : 2 каналаРасположение каналов : Front: L RЧастота : 48,0 КГцБитовая глубина : 16 битМетод сжатия : С потерямиРазмер потока : 67,0 Мбайт (4%)Язык : RussianDefault : ДаForced : Нет
    Аудио #2Идентификатор : 3Формат : AC-3Формат/Информация : Audio Coding 3Расширение режима : CM (complete main)Параметр Endianness формата : BigИдентификатор кодека : A_AC3Продолжительность : 48 м.Вид битрейта : ПостоянныйБитрейт : 192 Кбит/секКаналы : 2 каналаРасположение каналов : Front: L RЧастота : 48,0 КГцБитовая глубина : 16 битМетод сжатия : С потерямиРазмер потока : 67,0 Мбайт (4%)Язык : EnglishDefault : НетForced : Нет

    Скриншоты


    Скачать .torrent

    Скачать торрент-файл бесплатно и на максимальной скорости!

    Как скачивать? · Что такое торрент? · Рейтинг и ограничения

    !ВНИМАНИЕ!
    Сайт не распространяет и не хранит электронные версии произведений, а занимается лишь лишь предоставлением доступа к создаваемому пользователями каталогу ссылок на торрент-файлы, которые содержат только списки хеш-сумм, убедительная просьба с жалобами обращаться напрямую к пользователю. Файлы для обмена на трекере предоставлены пользователями сайта, и администрация не несёт ответственности за их содержание. Просьба не заливать файлы, защищенные авторскими правами, а также файлы нелегального содержания!


    _________________
    [Профиль] [ЛС]
    Показать сообщения:    
    Ответить на тему

    Текущее время: Сегодня, в 07:48

    Часовой пояс: GMT + 2



    Вы не можете начинать темы
    Вы не можете отвечать на сообщения
    Вы не можете редактировать свои сообщения
    Вы не можете удалять свои сообщения
    Вы не можете голосовать в опросах
    Вы не можете прикреплять файлы к сообщениям
    Вы не можете скачивать файлы