BitTorrentTracker PerecTracker.org
BitTorrentTracker PerecTracker.org
    
Регистрация  ·  Вход
 
 · 
Забыли пароль?

  • Босиком по городу / Barefoot (Эндрю Флеминг / Andrew Fleming) [2014, США, драма, мелодрама, комедия, BDRip-AVC] MVO + Sub Rus + Original Eng

    Ответить на тему
     
    Автор Сообщение

    Light

    Создавать темы 09-Май-2015 16:18

           

    [Цитировать]

    Босиком по городу
    Barefoot

    Страна: США
    Жанр: драма, мелодрама, комедия
    Год выпуска: 2014
    Продолжительность: 1:25:40
    Перевод: Профессиональный (многоголосый закадровый)
    Cубтитры: русские
    Оригинальная аудиодорожка: английский
    Режиссер: Эндрю Флеминг / Andrew Fleming
    В ролях: Эван Рэйчел Вуд, Скотт Спидман, Трит Уильямс, Кейт Бёртон, Дж.К. Симмонс, Дж. Омар Кастро, Дэвид Дженсен, Жаклин Флеминг, Эшли Борман, Рики Уэйн
    Описание: Джей — гуляка и дебошир. Он не удерживается ни на одном рабочем месте, а собственная семья считает его законченным неудачником. После очередной выходки его направляют «отдать долг обществу» — поработать уборщиком в клинике для душевнобольных. Там он знакомится с пациенткой Дэйзи — обаятельной девушкой, которая выглядит вполне нормальной, но совершенно не адаптирована к окружающей действительности. Девушка быстро привязывается к Джею и даже сбегает вслед за ним из клиники. Теперь Джей должен решить, как быть дальше. С одной стороны у него есть приглашение на свадьбу брата, где его ждут вместе с девушкой, которой у него нет, с другой — Дэйзи, которая ни на шаг от него не отходит. Джей решается на аферу и отправляется на свадьбу вместе с Дэйзи… Сэмпл: http://sendfile.su/1115205
    Качество видео: BDRip-AVC [Blu-ray Disc -BLUEBIRD]
    Формат видео: MKV
    Видео: AVC, 1120 x 630 (16:9), 2790 kbps, 25,000 fps, 0.158 bpp
    Аудио: AC3, 6ch, 48 kHz, 448 kbps, 16 bit
    Аудио 2: AC3, 6ch, 48 kHz, 384 kbps, 16 bit
    Формат субтитров: softsub (SRT)

    MediaInfo

    Уникальный идентификатор : 238609633399440000050221112696982196419 (0xB3828B365DF2268485C50F26D07BD0C3)
    Полное имя : F:\Films\Barefoot\Barefoot.mkv
    Формат : Matroska
    Версия формата : Version 4 / Version 2
    Размер файла : 2,17 Гбайт
    Продолжительность : 1 ч. 25 м.
    Общий поток : 3620 Кбит/сек
    Дата кодирования : UTC 2015-05-06 06:01:59
    Программа кодирования : mkvmerge v7.7.0 ('Six Voices') 64bit built on Feb 28 2015 23:39:33
    Библиотека кодирования : libebml v1.3.1 + libmatroska v1.4.2
    _STATISTICS_WRITING_APP : mkvmerge v7.7.0 ('Six Voices') 64bit built on Feb 28 2015 23:39:33
    _STATISTICS_WRITING_DATE_UTC : 2015-05-06 06:01:59
    _STATISTICS_TAGS : BPS DURATION NUMBER_OF_FRAMES NUMBER_OF_BYTES
    DURATION : 01:18:46.799000000
    NUMBER_OF_FRAMES : 1187
    NUMBER_OF_BYTES : 54563
    Видео
    Идентификатор : 1
    Формат : AVC
    Формат/Информация : Advanced Video Codec
    Профиль формата : High@L4.1
    Параметр CABAC формата : Да
    Параметр ReFrames формата : 8 кадров
    Идентификатор кодека : V_MPEG4/ISO/AVC
    Продолжительность : 1 ч. 25 м.
    Битрейт : 2790 Кбит/сек
    Ширина : 1120 пикселей
    Высота : 630 пикселей
    Соотношение сторон : 16:9
    Режим частоты кадров : Постоянный
    Частота кадров : 25,000 кадров/сек
    Цветовое пространство : YUV
    Субдискретизация насыщенности : 4:2:0
    Битовая глубина : 8 бит
    Тип развёртки : Прогрессивная
    Бит/(Пиксели*Кадры) : 0.158
    Размер потока : 1,63 Гбайт (75%)
    Библиотека кодирования : x264 core 142 r2431 ac76440
    Настройки программы : cabac=1 / ref=8 / deblock=1:-2:-1 / analyse=0x3:0x133 / me=umh / subme=9 / psy=1 / psy_rd=1.00:0.05 / mixed_ref=0 / me_range=36 / chroma_me=1 / trellis=2 / 8x8dct=1 / cqm=0 / deadzone=21,11 / fast_pskip=0 / chroma_qp_offset=-3 / threads=4 / lookahead_threads=1 / sliced_threads=0 / nr=0 / decimate=0 / interlaced=0 / bluray_compat=0 / constrained_intra=0 / bframes=12 / b_pyramid=2 / b_adapt=2 / b_bias=0 / direct=1 / weightb=1 / open_gop=0 / weightp=2 / keyint=250 / keyint_min=25 / scenecut=40 / intra_refresh=0 / rc=2pass / mbtree=0 / bitrate=2790 / ratetol=1.0 / qcomp=0.70 / qpmin=10 / qpmax=69 / qpstep=4 / cplxblur=20.0 / qblur=0.5 / ip_ratio=1.40 / pb_ratio=1.30 / aq=1:1.00
    Default : Да
    Forced : Нет
    Аудио #1
    Идентификатор : 2
    Формат : AC-3
    Формат/Информация : Audio Coding 3
    Расширение режима : CM (complete main)
    Параметр Endianness формата : Big
    Идентификатор кодека : A_AC3
    Продолжительность : 1 ч. 25 м.
    Вид битрейта : Постоянный
    Битрейт : 448 Кбит/сек
    Каналы : 6 каналов
    Расположение каналов : Front: L C R, Side: L R, LFE
    Частота : 48,0 КГц
    Битовая глубина : 16 бит
    Метод сжатия : С потерями
    Размер потока : 275 Мбайт (12%)
    Заголовок : Русский, многоголосый закадровый
    Язык : Russian
    Default : Да
    Forced : Нет
    Аудио #2
    Идентификатор : 3
    Формат : AC-3
    Формат/Информация : Audio Coding 3
    Расширение режима : CM (complete main)
    Параметр Endianness формата : Big
    Идентификатор кодека : A_AC3
    Продолжительность : 1 ч. 25 м.
    Вид битрейта : Постоянный
    Битрейт : 384 Кбит/сек
    Каналы : 6 каналов
    Расположение каналов : Front: L C R, Side: L R, LFE
    Частота : 48,0 КГц
    Битовая глубина : 16 бит
    Метод сжатия : С потерями
    Размер потока : 235 Мбайт (11%)
    Заголовок : Английский
    Язык : English
    Default : Нет
    Forced : Да
    Текст
    Идентификатор : 4
    Формат : UTF-8
    Идентификатор кодека : S_TEXT/UTF8
    Идентификатор кодека/Информация : UTF-8 Plain Text
    Заголовок : Русские
    Язык : Russian
    Default : Нет
    Forced : Да
    Меню
    00:00:00.000 : en:00:00:00.000
    00:06:29.542 : en:00:06:29.542
    00:16:10.458 : en:00:16:10.458
    00:21:09.667 : en:00:21:09.667
    00:31:25.083 : en:00:31:25.083
    00:35:11.250 : en:00:35:11.250
    00:40:46.833 : en:00:40:46.833
    00:47:19.667 : en:00:47:19.667
    00:59:26.083 : en:00:59:26.083
    01:09:37.375 : en:01:09:37.375
    01:14:14.625 : en:01:14:14.625
    01:19:43.250 : en:01:19:43.250

    Скриншот c названием фильма

    Скриншоты

    Возраст

    16+ - зрителям, достигшим 16 лет

    Рейтинг МРАА

    RG-13 - детям до 13 лет просмотр не желателен
    Скачать .torrent

    Скачать торрент-файл бесплатно и на максимальной скорости!

    Как скачивать? · Что такое торрент? · Рейтинг и ограничения

    !ВНИМАНИЕ!
    Сайт не распространяет и не хранит электронные версии произведений, а занимается лишь лишь предоставлением доступа к создаваемому пользователями каталогу ссылок на торрент-файлы, которые содержат только списки хеш-сумм, убедительная просьба с жалобами обращаться напрямую к пользователю. Файлы для обмена на трекере предоставлены пользователями сайта, и администрация не несёт ответственности за их содержание. Просьба не заливать файлы, защищенные авторскими правами, а также файлы нелегального содержания!


    _________________
    [Профиль] [ЛС]
    Показать сообщения:    
    Ответить на тему

    Текущее время: Сегодня, в 02:22

    Часовой пояс: GMT + 2



    Вы не можете начинать темы
    Вы не можете отвечать на сообщения
    Вы не можете редактировать свои сообщения
    Вы не можете удалять свои сообщения
    Вы не можете голосовать в опросах
    Вы не можете прикреплять файлы к сообщениям
    Вы не можете скачивать файлы