BitTorrentTracker PerecTracker.org
BitTorrentTracker PerecTracker.org
    
Регистрация  ·  Вход
 
 · 
Забыли пароль?

  • Убей меня три раза / Kill Me Three Times (Крив Стендерс / Kriv Stenders) [2014, Австралия, Криминальня комедия, WEB-DLRip] MVO (BadCatStudio)

    Ответить на тему
     
    Автор Сообщение

    Light

    Создавать темы 09-Май-2015 16:18

           

    [Цитировать]

    Убей меня три раза / Kill Me Three Times
    Страна: Австралия
    Жанр: Криминальня комедия
    Год выпуска: 2014
    Продолжительность: 01:30:22
    Перевод: Любительский (многоголосый закадровый) BadCatStudio
    Cубтитры: нет
    Режиссер: Крив Стендерс / Kriv Stenders
    В ролях: Саймон Пегг, Элис Брага, Тереза Палмер,Салливан Степлтон, Люк Хемсворт, Брайн Браун, Кэллон Малви
    Описание: Профессиональный убийца Чарли Вульф после выполнения неудачного контракта оказывается втянутым в три истории: убийств, шантажа и мести .
    Сэмпл: https://yadi.sk/i/440dKbGFgVR9J

    Качество видео: WEB-DLRip
    Формат видео: AVI
    Видео: Хvid, 720х304, 2,35:1, 23,976 кадра/сек, 2034 Кбит/сек
    Аудио: MP3, 44,1 КГц, 128 Кбит/сек, 2 канала

    MediaInfo

    Общее
    Полное имя : F:\BadCatStudio\Видео\Убей меня 3 раза.avi
    Формат : AVI
    Формат/Информация : Audio Video Interleave
    Профиль формата : OpenDML
    Размер файла : 1,37 Гбайт
    Продолжительность : 1 ч. 30 м.
    Общий поток : 2176 Кбит/сек
    Программа кодирования : Lavf52.93.0
    Видео
    Идентификатор : 0
    Формат : xvid
    Идентификатор кодека : xvid
    Продолжительность : 1 ч. 30 м.
    Битрейт : 2034 Кбит/сек
    Ширина : 720 пикселей
    Высота : 304 пикселя
    Соотношение сторон : 2,35:1
    Частота кадров : 23,976 кадра/сек
    Бит/(Пиксели*Кадры) : 0.388
    Размер потока : 1,28 Гбайт (93%)
    Аудио
    Идентификатор : 1
    Формат : MPEG Audio
    Версия формата : Version 1
    Профиль формата : Layer 3
    Режим : Joint stereo
    Расширение режима : MS Stereo
    Идентификатор кодека : 55
    Идентификатор кодека/Подсказка : MP3
    Продолжительность : 1 ч. 30 м.
    Вид битрейта : Постоянный
    Битрейт : 128 Кбит/сек
    Каналы : 2 канала
    Частота : 44,1 КГц
    Метод сжатия : С потерями
    Размер потока : 82,7 Мбайт (6%)
    Выравнивание : Соединение по промежуткам
    Продолжительность промежутка : 26 мс. (0,63 видеокадр)
    Библиотека кодирования : LAME3.98.4UU0

    Скриншот c названием фильма

    Скриншоты

    Скачать .torrent

    Скачать торрент-файл бесплатно и на максимальной скорости!

    Как скачивать? · Что такое торрент? · Рейтинг и ограничения

    !ВНИМАНИЕ!
    Сайт не распространяет и не хранит электронные версии произведений, а занимается лишь лишь предоставлением доступа к создаваемому пользователями каталогу ссылок на торрент-файлы, которые содержат только списки хеш-сумм, убедительная просьба с жалобами обращаться напрямую к пользователю. Файлы для обмена на трекере предоставлены пользователями сайта, и администрация не несёт ответственности за их содержание. Просьба не заливать файлы, защищенные авторскими правами, а также файлы нелегального содержания!


    _________________
    [Профиль] [ЛС]
    Показать сообщения:    
    Ответить на тему

    Текущее время: Сегодня, в 20:35

    Часовой пояс: GMT + 2



    Вы не можете начинать темы
    Вы не можете отвечать на сообщения
    Вы не можете редактировать свои сообщения
    Вы не можете удалять свои сообщения
    Вы не можете голосовать в опросах
    Вы не можете прикреплять файлы к сообщениям
    Вы не можете скачивать файлы