BitTorrentTracker PerecTracker.org
BitTorrentTracker PerecTracker.org
    
Регистрация  ·  Вход
 
 · 
Забыли пароль?

  • Белый Бог / White God (Корнел Мундруцо / Kornél Mundruczó) [2014, Венгрия, Германия, Швеция, драма, WEBRip] MVO

    Ответить на тему
     
    Автор Сообщение

    Light

    Создавать темы 09-Май-2015 16:18

           

    [Цитировать]

    Белый Бог / White God
    Страна: Венгрия, Германия, Швеция
    Жанр: драма
    Год выпуска: 2014
    Продолжительность: 01:56:01
    Перевод: Профессиональный (многоголосый закадровый)
    Cубтитры: нет
    Режиссер: Корнел Мундруцо / Kornél Mundruczó
    В ролях: Жофия Псотта, Шандор Жотер, Лили Хорват, Сабольч Туроци, Лили Монори, Гергей Банки, Тамаш Полгар, Карой Ашер, Эрика Боднар
    Описание: Маленькая девочка Лили очень любит своего мохнатого друга, пса Хагена.
    Они неразлучны, они лучшие друзья. Но её отец выбрасывает собаку на улицу.
    Наивно веря, что любовь может преодолеть любую трудность, Лили намеревается найти собаку и спасти её.
    Всё дело в том, что появился закон о защите породистых собак и вводе налогов на безпородных дворняг. Люди повсеместно избавляются от домашних собак. Приюты для животных заполнены. На улицах огромное количество бродячих собак.
    Лили отправляется искать своего друга. Но Хагена отлавливают и с другими собаками собираются отправить на смерть. Но собакам удаётся сбежать и они поднимают восстание против людей. Положить конец начинающейся войне людей и собак сможет любовь Лили.
    Доп. информация: Ограничение по возрасту: 16+
    Рейтинг MPAA: R (детям до 17 лет обязательно присутствие родителей)
    Сэмпл: http://multi-up.com/1047512
    Качество видео: WEBRip
    Формат видео: AVI
    Видео: XviD, 720х304 пикс, 25,0 кадров/сек, 1405 Кбит/сек, 0.257 Бит/(Пиксели*Кадры)
    Аудио: AC-3, 48,0 КГц, 384 Кбит/сек, 2 канала

    MediaInfo

    Полное имя : C:\фильмы\02 возможно для раздачи\белый бог\белый бог 2014г.avi
    Формат : AVI
    Формат/Информация : Audio Video Interleave
    Размер файла : 1,46 Гбайт
    Продолжительность : 1 ч. 56 м.
    Общий поток : 1799 Кбит/сек
    Название фильма : Beliy.Bog.2014.WEBRip.ELEKTRI4KA.uniongang.tv
    Программа кодирования : VirtualDubMod 1.5.10.3 | www.virtualdub-fr.org || (build 2550/release)
    Видео
    Идентификатор : 0
    Формат : MPEG-4 Visual
    Профиль формата : Advanced Simple@L5
    Параметр BVOP формата : 2
    Параметр QPel формата : Нет
    Параметр GMC формата : Без точки перехода
    Параметр матрицы формата : Default (MPEG)
    Режим смешивания : Сжатый битовый поток
    Идентификатор кодека : XVID
    Идентификатор кодека/Подсказка : XviD
    Продолжительность : 1 ч. 56 м.
    Битрейт : 1405 Кбит/сек
    Ширина : 720 пикселей
    Высота : 304 пикселя
    Соотношение сторон : 2,35:1
    Частота кадров : 25,000 кадров/сек
    Цветовое пространство : YUV
    Субдискретизация насыщенности : 4:2:0
    Битовая глубина : 8 бит
    Тип развёртки : Прогрессивная
    Метод сжатия : С потерями
    Бит/(Пиксели*Кадры) : 0.257
    Размер потока : 1,14 Гбайт (78%)
    Библиотека кодирования : XviD 73
    Аудио
    Идентификатор : 1
    Формат : AC-3
    Формат/Информация : Audio Coding 3
    Расширение режима : CM (complete main)
    Параметр Endianness формата : Big
    Идентификатор кодека : 2000
    Продолжительность : 1 ч. 56 м.
    Вид битрейта : Постоянный
    Битрейт : 384 Кбит/сек
    Каналы : 2 канала
    Расположение каналов : Front: L R
    Частота : 48,0 КГц
    Битовая глубина : 16 бит
    Метод сжатия : С потерями
    Размер потока : 319 Мбайт (21%)
    Выравнивание : Разделение по промежуткам
    Продолжительность промежутка : 40 мс. (1,00 видеокадр)
    Время предзагрузки промежутка : 500 мс.

    Скриншот c названием фильма

    Скриншоты


    Источник рипа

    найдено в сети: кинозал.тв, огромная благодарность раздающему: fokinura
    релиз: UNIONGANG - ELEKTRI4KA.
    Озвучивание: Профессиональное многоголосое- Чистый звук

    О собаках в фильме

    На съемках фильма было задействовано 274 собаки.
    Собаку по кличке Хаген играли собаки близнецы — Люк и Боди.
    Они были найдены на стоянке автоприцепов в Аризоне как раз в тот момент, когда их владелец собирался отвезти их в приют для животных.
    Все собаки, которых показывают в фильме, — это собаки смешанных пород, взятые из приютов для животных.

    предыдущие или аналогичные раздачи

    пока нет,
    появился рип 720р http://perectracker.org/viewtopic.php?t=5002074

    фильмы о собаках, волках и прочих псовых

    http://perectracker.org/viewtopic.php?t=1144862
    Скачать .torrent

    Скачать торрент-файл бесплатно и на максимальной скорости!

    Как скачивать? · Что такое торрент? · Рейтинг и ограничения

    !ВНИМАНИЕ!
    Сайт не распространяет и не хранит электронные версии произведений, а занимается лишь лишь предоставлением доступа к создаваемому пользователями каталогу ссылок на торрент-файлы, которые содержат только списки хеш-сумм, убедительная просьба с жалобами обращаться напрямую к пользователю. Файлы для обмена на трекере предоставлены пользователями сайта, и администрация не несёт ответственности за их содержание. Просьба не заливать файлы, защищенные авторскими правами, а также файлы нелегального содержания!


    _________________
    [Профиль] [ЛС]
    Показать сообщения:    
    Ответить на тему

    Текущее время: Сегодня, в 02:55

    Часовой пояс: GMT + 2



    Вы не можете начинать темы
    Вы не можете отвечать на сообщения
    Вы не можете редактировать свои сообщения
    Вы не можете удалять свои сообщения
    Вы не можете голосовать в опросах
    Вы не можете прикреплять файлы к сообщениям
    Вы не можете скачивать файлы