BitTorrentTracker PerecTracker.org
BitTorrentTracker PerecTracker.org
    
Регистрация  ·  Вход
 
 · 
Забыли пароль?

  • Черная роза / Black Rose (Александр Невский / Alexander Nevsky) [2014, США, Россия, Детектив, триллер, криминал, DVDRip-AVC] Dub

    Ответить на тему
     
    Автор Сообщение

    Light

    Создавать темы 09-Май-2015 16:18

           

    [Цитировать]

    Черная роза / Black RoseСтрана: США, Россия / Hollywood Storm
    Жанр: Детектив, триллер, криминал
    Год выпуска: 2014
    Продолжительность: 01:19:41
    Перевод: Профессиональный (дублированный)
    Cубтитры: нет
    Режиссер: Александр Невский / Alexander Nevsky
    В ролях: Александр Невский, Кристанна Локен, Эдриан Пол, Роберт Дави, Роберт Мадрид, Маттиас Хьюз, Оксана Сидоренко, Эммануил Виторган, Ольга Родионова, Дмитрий Бикбаев
    Описание: Майор московской полиции, отправляется в Лос-Анджелес для помощи местным стражам порядка в расследовании серии убийств русских эмигрантов. Вместе с американской напарницей российский полицейский начинает погоню за новым Джеком Потрошителем.

    Размер: 1.45 Гб
    Сэмпл: http://sendfile.su/1116021
    Качество видео: DVDRip-AVC
    Формат видео: MKV
    Видео: MPEG-4 AVC, 2214 Кбит/с, 1024x552, 25.000 fps
    Аудио: Русский, AC3, 6 каналов, 384 Кбит/с, 48.0 Кгц

    MediaInfo

    Полное имя : Chernaia.roza.2014.DVDRip.AVC.ExKinoRay.mkv
    Формат : Matroska
    Версия формата : Version 2
    Размер файла : 1,45 Гбайт
    Продолжительность : 1 ч. 19 м.
    Общий поток : 2599 Кбит/сек
    Название фильма : Black Rose 2014 from ExKinoRay
    Дата кодирования : UTC 2014-08-07 04:09:39
    Программа кодирования : mkvmerge v4.9.1 ('Ich will') built on Jul 11 2011 23:53:15
    Библиотека кодирования : libebml v1.2.1 + libmatroska v1.1.1
    Видео
    Идентификатор : 1
    Формат : AVC
    Формат/Информация : Advanced Video Codec
    Профиль формата : High@L4.1
    Параметр CABAC формата : Да
    Параметр ReFrames формата : 9 кадров
    Идентификатор кодека : V_MPEG4/ISO/AVC
    Продолжительность : 1 ч. 19 м.
    Битрейт : 2214 Кбит/сек
    Ширина : 1024 пикселя
    Высота : 552 пикселя
    Соотношение сторон : 1,85:1
    Режим частоты кадров : Постоянный
    Частота кадров : 25,000 кадров/сек
    Цветовое пространство : YUV
    Субдискретизация насыщенности : 4:2:0
    Битовая глубина : 8 бит
    Тип развёртки : Прогрессивная
    Бит/(Пиксели*Кадры) : 0.157
    Размер потока : 1,20 Гбайт (83%)
    Заголовок : Enigma
    Библиотека кодирования : x264 core 116 r2044 392e762
    Аудио
    Идентификатор : 2
    Формат : AC-3
    Формат/Информация : Audio Coding 3
    Расширение режима : CM (complete main)
    Параметр Endianness формата : Big
    Идентификатор кодека : A_AC3
    Продолжительность : 1 ч. 19 м.
    Вид битрейта : Постоянный
    Битрейт : 384 Кбит/сек
    Каналы : 6 каналов
    Расположение каналов : Front: L C R, Side: L R, LFE
    Частота : 48,0 КГц
    Битовая глубина : 16 бит
    Метод сжатия : С потерями
    Размер потока : 219 Мбайт (15%)
    Язык : Russian
    Default : Да
    Forced : Нет

    Скриншот c названием фильма

    Скриншоты

    Скачать .torrent

    Скачать торрент-файл бесплатно и на максимальной скорости!

    Как скачивать? · Что такое торрент? · Рейтинг и ограничения

    !ВНИМАНИЕ!
    Сайт не распространяет и не хранит электронные версии произведений, а занимается лишь лишь предоставлением доступа к создаваемому пользователями каталогу ссылок на торрент-файлы, которые содержат только списки хеш-сумм, убедительная просьба с жалобами обращаться напрямую к пользователю. Файлы для обмена на трекере предоставлены пользователями сайта, и администрация не несёт ответственности за их содержание. Просьба не заливать файлы, защищенные авторскими правами, а также файлы нелегального содержания!


    _________________
    [Профиль] [ЛС]
    Показать сообщения:    
    Ответить на тему

    Текущее время: Сегодня, в 04:07

    Часовой пояс: GMT + 2



    Вы не можете начинать темы
    Вы не можете отвечать на сообщения
    Вы не можете редактировать свои сообщения
    Вы не можете удалять свои сообщения
    Вы не можете голосовать в опросах
    Вы не можете прикреплять файлы к сообщениям
    Вы не можете скачивать файлы