BitTorrentTracker PerecTracker.org
BitTorrentTracker PerecTracker.org
    
Регистрация  ·  Вход
 
 · 
Забыли пароль?

  • Пилигрим: Пауло Коэльо / Nao Pare na Pista: A Melhor Historia de Paulo Coelho (Даниэл Аугусту / Daniel Augusto) [2014, Бразилия, Испания, драма, биография, музыка, HDRip] Dub (iTunes)

    Ответить на тему
     
    Автор Сообщение

    Light

    Создавать темы 09-Май-2015 16:18

           

    [Цитировать]

    Пилигрим: Пауло Коэльо / Não Pare na Pista: A Melhor História de Paulo Coelho
    Страна: Бразилия, Испания
    Жанр: драма, биография, музыка
    Год выпуска: 2014
    Продолжительность: 01:51:07
    Перевод: Профессиональный (дублированный) iTunes
    Cубтитры: нет
    Режиссер: Даниэл Аугусту/Daniel Augusto
    В ролях: Хулио Андраде,Равель Андраде,Фабиана Гугли,Фабиула Нассименту,Энрике Диас,Лукки Феррейра,Нанчо Ново,Родольфо Абритта,Тереса Амайо,Полиана Андерл
    Описание: Хроника восхождения звезды Пауло Коэльо, которая рассказывает, как человек, обремененный жизненными проблемами, стал одним из самых значимых писателей в истории Бразилии.
    Доп. информация: IMDb: 6.00 (178)
    Сэмпл: http://sendfile.su/1116139
    Качество видео: HDRip
    Формат видео: AVI
    Видео: Video: 720x384 (1.88:1), 24 fps, XviD MPEG-4 ~1483 kbps avg, 0.22 bit/pixel
    Аудио: Audio: 48 kHz, AC3 Dolby Digital, 3/2 (L,C,R,l,r) + LFE ch, ~384 kbps

    MediaInfo

    Формат : AVI
    Формат/Информация : Audio Video Interleave
    Размер файла : 1,46 Гбайт
    Продолжительность : 1 ч. 51 м.
    Общий поток : 1877 Кбит/сек
    Название фильма : Piligrim.Paulo.Koelo.2014
    Программа кодирования : VirtualDubMod 1.5.10.3
    Правообладатель : UNIONGANG&RUSTORRENTS
    Видео
    Идентификатор : 0
    Формат : MPEG-4 Visual
    Профиль формата : Advanced Simple@L5
    Параметр BVOP формата : 2
    Параметр QPel формата : Нет
    Параметр GMC формата : Без точки перехода
    Параметр матрицы формата : Default (MPEG)
    Режим смешивания : Сжатый битовый поток
    Идентификатор кодека : XVID
    Идентификатор кодека/Подсказка : XviD
    Продолжительность : 1 ч. 51 м.
    Битрейт : 1484 Кбит/сек
    Ширина : 720 пикселей
    Высота : 384 пикселя
    Соотношение сторон : 1,85:1
    Частота кадров : 24,000 кадра/сек
    Цветовое пространство : YUV
    Субдискретизация насыщенности : 4:2:0
    Битовая глубина : 8 бит
    Тип развёртки : Прогрессивная
    Метод сжатия : С потерями
    Бит/(Пиксели*Кадры) : 0.224
    Размер потока : 1,15 Гбайт (79%)
    Библиотека кодирования : XviD 73
    Аудио
    Идентификатор : 1
    Формат : AC-3
    Формат/Информация : Audio Coding 3
    Расширение режима : CM (complete main)
    Параметр Endianness формата : Big
    Идентификатор кодека : 2000
    Продолжительность : 1 ч. 51 м.
    Вид битрейта : Постоянный
    Битрейт : 384 Кбит/сек
    Каналы : 6 каналов
    Расположение каналов : Front: L C R, Side: L R, LFE
    Частота : 48,0 КГц
    Битовая глубина : 16 бит
    Метод сжатия : С потерями
    Размер потока : 305 Мбайт (20%)
    Выравнивание : Разделение по промежуткам
    Продолжительность промежутка : 42 мс. (1,00 видеокадр)
    Время предзагрузки промежутка : 500 мс.

    Скриншот c названием фильма

    Скриншоты

    Скачать .torrent

    Скачать торрент-файл бесплатно и на максимальной скорости!

    Как скачивать? · Что такое торрент? · Рейтинг и ограничения

    !ВНИМАНИЕ!
    Сайт не распространяет и не хранит электронные версии произведений, а занимается лишь лишь предоставлением доступа к создаваемому пользователями каталогу ссылок на торрент-файлы, которые содержат только списки хеш-сумм, убедительная просьба с жалобами обращаться напрямую к пользователю. Файлы для обмена на трекере предоставлены пользователями сайта, и администрация не несёт ответственности за их содержание. Просьба не заливать файлы, защищенные авторскими правами, а также файлы нелегального содержания!


    _________________
    [Профиль] [ЛС]
    Показать сообщения:    
    Ответить на тему

    Текущее время: Сегодня, в 23:51

    Часовой пояс: GMT + 2



    Вы не можете начинать темы
    Вы не можете отвечать на сообщения
    Вы не можете редактировать свои сообщения
    Вы не можете удалять свои сообщения
    Вы не можете голосовать в опросах
    Вы не можете прикреплять файлы к сообщениям
    Вы не можете скачивать файлы