BitTorrentTracker PerecTracker.org
BitTorrentTracker PerecTracker.org
    
Регистрация  ·  Вход
 
 · 
Забыли пароль?

  • Иисус любит меня / Jesus liebt mich (Флориан Давид Фиц / Florian David Fitz) [2012, Германия, комедия, HDRip] MVO + Original Ger

    Ответить на тему
     
    Автор Сообщение

    Light

    Создавать темы 09-Май-2015 16:18

           

    [Цитировать]

    Иисус любит меня / Jesus liebt mich
    Страна: Германия
    Жанр: комедия
    Год выпуска: 2012
    Продолжительность: 01:40:26
    Перевод: Любительский (многоголосый закадровый) [Екатерина Просвирина, Галина Васюкова, Родион Камонов] перевод на русский язык [Мария Игнатова]
    Cубтитры: нет
    Оригинальная аудиодорожка: немецкий
    Режиссер: Флориан Давид Фиц / Florian David Fitz
    В ролях: Флориан Давид Фитц, Джессика Шварц, Йоханнес Алльмайер, Ханнелоре Эльснер, Михаэль Гвиздек, Хенри Хюбхен, Николас Офчарек, Питер Прагер, Марк Беньямин Пух, Полина Рожински
    Описание: Марии чуть за 30, и она все не может встретить того единственного. Но затем она встречает Иешуа. И, кажется, он слишком идеален, чтобы стать для нее спутником на всю жизнь, ведь он может выслушать, хорош собой и не зациклен только на себе, что вообще редкость в наше время. Хотя возможно, Мария ослеплена любовью и не замечает некоторые странности нового друга из Палестины: у него неухоженные волосы, он никогда не видел помидоры и моет ноги других людей просто так. Ей так необходимо мужское плечо, и она жаждет любви. Иешуа, однако, занят своей миссией: он должен подготовить мир к приближающемуся концу света, который запланирован на следующий вторник. Постепенно Марии все становится ясно.
    Доп. информация: ,
    Сэмпл: http://multi-up.com/1047584
    Качество видео: HDRip
    Формат видео: AVI
    Видео: 720x304 (2.37:1), 23.976 fps, XviD build 50 ~1348 kbps avg, 0.26 bit/pixel
    Аудио: 44.1 kHz, AC3 Dolby Digital, 2/0 (L,R) ch, ~192 kbps | Rus
    Аудио 2: 48 kHz, AC3 Dolby Digital, 3/2 (L,C,R,l,r) LFE ch, ~448 kbps | Ger

    MediaInfo

    D:\Jesus.liebt.mich.German.2012.HDRip. СПАМ
    General
    Complete name : D:\Jesus.liebt.mich.German.2012.HDRip. СПАМ
    Format : AVI
    Format/Info : Audio Video Interleave
    File size : 1.41 GiB
    Duration : 1h 40mn
    Overall bit rate : 2 003 Kbps
    Writing application : VirtualDubMod 1.5.10.2 (build 2542/release)
    Writing library : VirtualDubMod build 2542/release
    Video #0
    ID : 0
    Format : MPEG-4 Visual
    Format profile : Advanced Simple@L5
    Format settings, BVOP : 2
    Format settings, QPel : No
    Format settings, GMC : No warppoints
    Format settings, Matrix : Default (H.263)
    Codec ID : XVID
    Codec ID/Hint : XviD
    Duration : 1h 40mn
    Bit rate : 1 349 Kbps
    Width : 720 pixels
    Height : 304 pixels
    Display aspect ratio : 2.35:1
    Frame rate : 23.976 fps
    Color space : YUV
    Chroma subsampling : 4:2:0
    Bit depth : 8 bits
    Scan type : Progressive
    Compression mode : Lossy
    Bits/(Pixel*Frame) : 0.257
    Stream size : 969 MiB (67%)
    Writing library : XviD 1.2.1 (UTC 2008-12-04)
    Audio #1
    ID : 1
    Format : AC-3
    Format/Info : Audio Coding 3
    Mode extension : CM (complete main)
    Format settings, Endianness : Big
    Codec ID : 2000
    Duration : 1h 40mn
    Bit rate mode : Constant
    Bit rate : 192 Kbps
    Channel(s) : 2 channels
    Channel positions : Front: L R
    Sampling rate : 44.1 KHz
    Bit depth : 16 bits
    Compression mode : Lossy
    Stream size : 138 MiB (10%)
    Alignment : Split accross interleaves
    Interleave, duration : 42 ms (1.00 video frame)
    Interleave, preload duration : 500 ms
    Audio #2
    ID : 2
    Format : AC-3
    Format/Info : Audio Coding 3
    Mode extension : CM (complete main)
    Format settings, Endianness : Big
    Codec ID : 2000
    Duration : 1h 40mn
    Bit rate mode : Constant
    Bit rate : 448 Kbps
    Channel(s) : 6 channels
    Channel positions : Front: L C R, Side: L R, LFE
    Sampling rate : 48.0 KHz
    Bit depth : 16 bits
    Compression mode : Lossy
    Stream size : 322 MiB (22%)
    Alignment : Split accross interleaves
    Interleave, duration : 42 ms (1.00 video frame)
    Interleave, preload duration : 500 ms

    Скриншот c названием фильма

    Скриншоты


    Скачать .torrent

    Скачать торрент-файл бесплатно и на максимальной скорости!

    Как скачивать? · Что такое торрент? · Рейтинг и ограничения

    !ВНИМАНИЕ!
    Сайт не распространяет и не хранит электронные версии произведений, а занимается лишь лишь предоставлением доступа к создаваемому пользователями каталогу ссылок на торрент-файлы, которые содержат только списки хеш-сумм, убедительная просьба с жалобами обращаться напрямую к пользователю. Файлы для обмена на трекере предоставлены пользователями сайта, и администрация не несёт ответственности за их содержание. Просьба не заливать файлы, защищенные авторскими правами, а также файлы нелегального содержания!


    _________________
    [Профиль] [ЛС]
    Показать сообщения:    
    Ответить на тему

    Текущее время: Сегодня, в 08:03

    Часовой пояс: GMT + 2



    Вы не можете начинать темы
    Вы не можете отвечать на сообщения
    Вы не можете редактировать свои сообщения
    Вы не можете удалять свои сообщения
    Вы не можете голосовать в опросах
    Вы не можете прикреплять файлы к сообщениям
    Вы не можете скачивать файлы