BitTorrentTracker PerecTracker.org
BitTorrentTracker PerecTracker.org
    
Регистрация  ·  Вход
 
 · 
Забыли пароль?

  • Седьмой сын / Seventh Son (Сергей Бодров / Sergey Bodrov) [2014, США, Великобритания, Канада, Китай, Фэнтези, приключения, BDRip-AVC] Dub + Sub (Rus)

    Ответить на тему
     
    Автор Сообщение

    Light

    Создавать темы 09-Май-2015 16:18

           

    [Цитировать]

    Седьмой сын / Seventh Son

    «When darkness falls, the son will rise»
    -Страна: США, Великобритания, Канада, Китай
    Жанр: Фэнтези, приключения
    Год выпуска: 2014
    Продолжительность: 01:41:59
    Перевод: Профессиональный (дублированный) - | Лицензия - BD CEE |
    Cубтитры: Русские (полные + форс.)
    Навигация по главам: Есть-Режиссер: Сергей Бодров / Sergey Bodrov-В ролях: Бен Барнс, Джефф Бриджес, Джулианна Мур, Алисия Викандер, Антье Трауэ, Оливия Уильямс, Джон ДеСантис, Кит Харингтон, Джимон Хонсу, Джерард Планкет, Джейсон Скотт Ли, Кэндис МакКлюр, Люк Родерик, Заф Пару, Тимоти Уэббер, Лайла Фицджералд, Марсель Жани, Либби Ослер, Примо Аллон, Тая Клайн...-Описание: Рассказ в фильме пойдет про парня, который, так уж вышло, стал седьмым сыном седьмого сына. А только такой человек может стать ведьмаком. Но этого недостаточно, чтобы именовать себя так — необходимо пройти массу тренировок, а также усердно учиться. Ведь главное оружие ведьмака — это его ум. Хоть в народе их не любят, но кто-то же обязан убивать нечисть, хранить землю от сил зла и делать всю грязную работу? Юный Том Уорд попробует стать тем самым учеником ведьмака.--Качество видео: BDRip-AVC | Blu-Ray - HDClub |
    Формат видео: MKV
    Видео: х.264, 960x400 (2,40:1), 23.976 fps, 1602 kbps, 0.174 bit/pixel
    Аудио: AC3 Dolby Digital, 3/2 (L,C,R,l,r) + LFE ch, 448.00 kbps
    -

    Дополнительно о фильме:

    Производство, студия дубляжа, прокат:

    Знаете ли вы, что...

    MediaInfo

    General
    Complete name : Seventh Son.BDRip-AVC.mkv
    Format : Matroska
    Format version : Version 4 / Version 2
    File size : 1.46 GiB
    Duration : 1h 41mn
    Overall bit rate : 2 051 Kbps
    Encoded date : UTC 2015-05-07 16:33:42
    Writing application : mkvmerge v5.9.0 ('On The Loose') built on Dec 15 2012 16:39:58
    Writing library : libebml v1.3.0 + libmatroska v1.4.0
    Video
    ID : 1
    Format : AVC
    Format/Info : Advanced Video Codec
    Format profile : High@L4.1
    Format settings, CABAC : Yes
    Format settings, ReFrames : 12 frames
    Codec ID : V_MPEG4/ISO/AVC
    Duration : 1h 41mn
    Bit rate : 1 602 Kbps
    Width : 960 pixels
    Height : 400 pixels
    Display aspect ratio : 2.40:1
    Frame rate mode : Constant
    Frame rate : 23.976 fps
    Color space : YUV
    Chroma subsampling : 4:2:0
    Bit depth : 8 bits
    Scan type : Progressive
    Bits/(Pixel*Frame) : 0.174
    Stream size : 1.11 GiB (76%)
    Writing library : x264 core 146 r2538 121396c
    Encoding settings : cabac=1 / ref=12 / deblock=1:-2:-2 / analyse=0x3:0x113 / me=umh / subme=11 / psy=1 / psy_rd=1.00:0.05 / mixed_ref=1 / me_range=48 / chroma_me=1 / trellis=2 / 8x8dct=1 / cqm=0 / deadzone=21,11 / fast_pskip=0 / chroma_qp_offset=-3 / threads=12 / lookahead_threads=2 / sliced_threads=0 / nr=0 / decimate=0 / interlaced=0 / bluray_compat=0 / constrained_intra=0 / bframes=13 / b_pyramid=2 / b_adapt=2 / b_bias=0 / direct=3 / weightb=1 / open_gop=0 / weightp=2 / keyint=250 / keyint_min=23 / scenecut=40 / intra_refresh=0 / rc_lookahead=60 / rc=2pass / mbtree=0 / bitrate=1602 / ratetol=1.0 / qcomp=0.72 / qpmin=0 / qpmax=69 / qpstep=4 / cplxblur=20.0 / qblur=0.5 / vbv_maxrate=14000 / vbv_bufsize=14000 / nal_hrd=none / filler=0 / ip_ratio=1.35 / pb_ratio=1.30 / aq=1:0.80
    Language : English
    Default : Yes
    Forced : No
    Audio
    ID : 2
    Format : AC-3
    Format/Info : Audio Coding 3
    Mode extension : CM (complete main)
    Format settings, Endianness : Big
    Codec ID : A_AC3
    Duration : 1h 41mn
    Bit rate mode : Constant
    Bit rate : 448 Kbps
    Channel(s) : 6 channels
    Channel positions : Front: L C R, Side: L R, LFE
    Sampling rate : 48.0 KHz
    Bit depth : 16 bits
    Compression mode : Lossy
    Stream size : 327 MiB (22%)
    Title : Dub | DD 5.1 @ 448 kbps - Blu-Ray CEE
    Language : Russian
    Default : Yes
    Forced : No
    Text #1
    ID : 3
    Format : UTF-8
    Codec ID : S_TEXT/UTF8
    Codec ID/Info : UTF-8 Plain Text
    Title : форс.
    Language : Russian
    Default : Yes
    Forced : No
    Text #2
    ID : 4
    Format : UTF-8
    Codec ID : S_TEXT/UTF8
    Codec ID/Info : UTF-8 Plain Text
    Language : Russian
    Default : No
    Forced : No
    Menu
    00:00:00.000 : en:(01)00:00:00:000
    00:04:50.415 : en:(02)00:04:50:415
    00:10:28.544 : en:(03)00:10:28:544
    00:16:40.582 : en:(04)00:16:40:582
    00:22:40.359 : en:(05)00:22:40:359
    00:27:40.450 : en:(06)00:27:40:450
    00:30:17.690 : en:(07)00:30:17:690
    00:36:45.203 : en:(08)00:36:45:203
    00:42:37.388 : en:(09)00:42:37:388
    00:49:54.741 : en:(10)00:49:54:741
    00:54:45.073 : en:(11)00:54:45:073
    00:57:48.548 : en:(12)00:57:48:548
    01:02:53.144 : en:(13)01:02:53:144
    01:06:53.968 : en:(14)01:06:53:968
    01:11:29.285 : en:(15)01:11:29:285
    01:18:36.920 : en:(16)01:18:36:920
    01:22:10.300 : en:(17)01:22:10:300
    01:25:32.669 : en:(18)01:25:32:669
    01:30:15.034 : en:(19)01:30:15:034
    01:33:21.095 : en:(20)01:33:21:095
    01:41:59.488 : en:(21)01:41:59:488

    Скриншот c названием фильма

    Скриншоты

    Скачать .torrent

    Скачать торрент-файл бесплатно и на максимальной скорости!

    Как скачивать? · Что такое торрент? · Рейтинг и ограничения

    !ВНИМАНИЕ!
    Сайт не распространяет и не хранит электронные версии произведений, а занимается лишь лишь предоставлением доступа к создаваемому пользователями каталогу ссылок на торрент-файлы, которые содержат только списки хеш-сумм, убедительная просьба с жалобами обращаться напрямую к пользователю. Файлы для обмена на трекере предоставлены пользователями сайта, и администрация не несёт ответственности за их содержание. Просьба не заливать файлы, защищенные авторскими правами, а также файлы нелегального содержания!


    _________________
    [Профиль] [ЛС]
    Показать сообщения:    
    Ответить на тему

    Текущее время: Сегодня, в 11:42

    Часовой пояс: GMT + 2



    Вы не можете начинать темы
    Вы не можете отвечать на сообщения
    Вы не можете редактировать свои сообщения
    Вы не можете удалять свои сообщения
    Вы не можете голосовать в опросах
    Вы не можете прикреплять файлы к сообщениям
    Вы не можете скачивать файлы