BitTorrentTracker PerecTracker.org
BitTorrentTracker PerecTracker.org
    
Регистрация  ·  Вход
 
 · 
Забыли пароль?

  • За прекрасных дам! (Анатолий Эйрамджан) [1989, комедия, криминал, DVDRip-AVC]

    Ответить на тему
     
    Автор Сообщение

    Light

    Создавать темы 06-Май-2015 21:18

           

    [Цитировать]

    За прекрасных дам!
    Жанр: комедия, криминал
    Год выпуска: 1989
    Продолжительность: 01:06:36
    Режиссёр: Анатолий Эйрамджан
    В ролях: Александр Панкратов-Черный, Александр Абдулов, Елена Цыплакова, Ирина Шмелева, Ирина Розанова, Маргарита Сергеечева, Сергей Степанченко, Елена Аржаник.
    Описание: В качестве своих жертв незадачливые грабители выбирают компанию молодых благополучных дам, решивших обсудить свои дела за прекрасным ужином…
    Семпл: http://multi-up.com/1047102
    Качество видео: DVDRip-AVC
    Формат видео: MKV
    Видео: 698x576 (1.293) @ 746x576, 25.000 fps, AVC, ~2145 Kbps, 0.213 bits/pixel
    Аудио: 48.0 KHz, AC3, 2 ch, 192 Kbps

    Log

    avs4x264.exe: -L x264_64.exe --pass 2 --bitrate 2145 --preset medium --ref 10 --deblock -1:-1 --merange 32 --bframes 10 --direct auto --b-adapt 2 --trellis 2 --no-fast-pskip --psy-rd 1.00:0.10 --partitions all --subme 10 --me umh --rc-lookahead 50 --sar 16:15 --stats
    raw [info]: 698x576p 16:15 @ 25/1 fps (cfr)
    x264 [info]: using SAR=16/15
    x264 [info]: using cpu capabilities: MMX2 SSE2Fast LZCNT
    x264 [info]: profile High, level 3.1
    x264 [info]: frame I:537 Avg QP:16.99 size: 67861
    x264 [info]: frame P:17253 Avg QP:19.55 size: 28776
    x264 [info]: frame B:82111 Avg QP:23.01 size: 6558
    x264 [info]: consecutive B-frames: 0.7% 0.7% 2.1% 8.8% 14.3% 43.1% 13.7% 9.0% 3.7% 2.8% 1.3%
    x264 [info]: mb I I16..4: 3.2% 74.8% 22.0%
    x264 [info]: mb P I16..4: 0.3% 9.2% 1.0% P16..4: 42.8% 29.7% 16.1% 0.6% 0.1% skip: 0.2%
    x264 [info]: mb B I16..4: 0.0% 0.5% 0.0% B16..8: 46.0% 9.8% 1.9% direct:12.6% skip:29.1% L0:41.8% L1:40.7% BI:17.5%
    x264 [info]: 8x8 transform intra:85.2% inter:63.9%
    x264 [info]: direct mvs spatial:99.2% temporal:0.8%
    x264 [info]: coded y,uvDC,uvAC intra: 96.7% 90.3% 61.9% inter: 39.1% 44.5% 3.6%
    x264 [info]: i16 v,h,dc,p: 20% 14% 17% 49%
    x264 [info]: i8 v,h,dc,ddl,ddr,vr,hd,vl,hu: 11% 8% 6% 9% 14% 14% 12% 13% 13%
    x264 [info]: i4 v,h,dc,ddl,ddr,vr,hd,vl,hu: 10% 7% 4% 10% 14% 16% 12% 14% 13%
    x264 [info]: i8c dc,h,v,p: 44% 20% 20% 16%
    x264 [info]: Weighted P-Frames: Y:32.6% UV:14.8%
    x264 [info]: ref P L0: 31.3% 12.7% 18.7% 9.2% 7.5% 5.4% 5.3% 3.1% 3.3% 2.8% 0.7% 0.0%
    x264 [info]: ref B L0: 70.2% 15.4% 5.0% 3.2% 2.0% 2.0% 1.4% 0.6% 0.2%
    x264 [info]: ref B L1: 93.2% 6.8%
    x264 [info]: kb/s:2144.93
    x264 [total]: encoded 99901 frames, 9.51 fps, 2144.93 kb/s

    MediaInfo

    General
    Unique ID : 176035504782709343824278934136879408998 (0x846F347A767AF2ACAFA95A3647AD6766)
    Complete name : C:\За прекрасных дам!.mkv
    Format : Matroska
    Format version : Version 4 / Version 2
    File size : 1.09 GiB
    Duration : 1h 6mn
    Overall bit rate : 2 339 Kbps
    Encoded date : UTC 2015-05-06 17:42:54
    Writing application : mkvmerge v7.7.0 ('Six Voices') 64bit built on Feb 28 2015 23:39:33
    Writing library : libebml v1.3.1 + libmatroska v1.4.2
    DURATION : 01:06:35.808000000
    NUMBER_OF_FRAMES : 124869
    NUMBER_OF_BYTES : 95899392
    _STATISTICS_WRITING_APP : mkvmerge v7.7.0 ('Six Voices') 64bit built on Feb 28 2015 23:39:33
    _STATISTICS_WRITING_DATE_UT : 2015-05-06 17:42:54
    _STATISTICS_TAGS : BPS DURATION NUMBER_OF_FRAMES NUMBER_OF_BYTES
    Video
    ID : 1
    Format : AVC
    Format/Info : Advanced Video Codec
    Format profile : High@L3.1
    Format settings, CABAC : Yes
    Format settings, ReFrames : 10 frames
    Codec ID : V_MPEG4/ISO/AVC
    Duration : 1h 6mn
    Bit rate : 2 145 Kbps
    Width : 698 pixels
    Height : 576 pixels
    Display aspect ratio : 1.293
    Frame rate mode : Constant
    Frame rate : 25.000 fps
    Color space : YUV
    Chroma subsampling : 4:2:0
    Bit depth : 8 bits
    Scan type : Progressive
    Bits/(Pixel*Frame) : 0.213
    Stream size : 1 000 MiB (90%)
    Writing library : x264 core 146 r2538 121396c
    Encoding settings : cabac=1 / ref=10 / deblock=1:-1:-1 / analyse=0x3:0x133 / me=umh / subme=10 / psy=1 / psy_rd=1.00:0.10 / mixed_ref=1 / me_range=32 / chroma_me=1 / trellis=2 / 8x8dct=1 / cqm=0 / deadzone=21,11 / fast_pskip=0 / chroma_qp_offset=-3 / threads=6 / lookahead_threads=1 / sliced_threads=0 / nr=0 / decimate=1 / interlaced=0 / bluray_compat=0 / constrained_intra=0 / bframes=10 / b_pyramid=2 / b_adapt=2 / b_bias=0 / direct=3 / weightb=1 / open_gop=0 / weightp=2 / keyint=250 / keyint_min=25 / scenecut=40 / intra_refresh=0 / rc_lookahead=50 / rc=2pass / mbtree=1 / bitrate=2145 / ratetol=1.0 / qcomp=0.60 / qpmin=0 / qpmax=69 / qpstep=4 / cplxblur=20.0 / qblur=0.5 / ip_ratio=1.40 / aq=1:1.00
    Language : Russian
    Default : Yes
    Forced : No
    Audio
    ID : 2
    Format : AC-3
    Format/Info : Audio Coding 3
    Mode extension : CM (complete main)
    Format settings, Endianness : Big
    Codec ID : A_AC3
    Duration : 1h 6mn
    Bit rate mode : Constant
    Bit rate : 192 Kbps
    Channel(s) : 2 channels
    Channel positions : Front: L R
    Sampling rate : 48.0 KHz
    Bit depth : 16 bits
    Compression mode : Lossy
    Stream size : 91.5 MiB (8%)
    Language : Russian
    Default : Yes
    Forced : No
    Menu
    00:00:00.000 : :Chapter 01
    00:05:40.080 : :Chapter 02
    00:10:19.080 : :Chapter 03
    00:17:08.520 : :Chapter 04
    00:21:15.360 : :Chapter 05
    00:27:05.160 : :Chapter 06
    00:33:49.920 : :Chapter 07
    00:41:57.240 : :Chapter 08
    00:46:06.720 : :Chapter 09
    00:51:39.000 : :Chapter 10
    00:57:05.760 : :Chapter 11
    01:01:27.720 : :Chapter 12

    Скриншоты

    Скачать .torrent

    Скачать торрент-файл бесплатно и на максимальной скорости!

    Как скачивать? · Что такое торрент? · Рейтинг и ограничения

    !ВНИМАНИЕ!
    Сайт не распространяет и не хранит электронные версии произведений, а занимается лишь лишь предоставлением доступа к создаваемому пользователями каталогу ссылок на торрент-файлы, которые содержат только списки хеш-сумм, убедительная просьба с жалобами обращаться напрямую к пользователю. Файлы для обмена на трекере предоставлены пользователями сайта, и администрация не несёт ответственности за их содержание. Просьба не заливать файлы, защищенные авторскими правами, а также файлы нелегального содержания!


    _________________
    [Профиль] [ЛС]
    Показать сообщения:    
    Ответить на тему

    Текущее время: Сегодня, в 00:19

    Часовой пояс: GMT + 2



    Вы не можете начинать темы
    Вы не можете отвечать на сообщения
    Вы не можете редактировать свои сообщения
    Вы не можете удалять свои сообщения
    Вы не можете голосовать в опросах
    Вы не можете прикреплять файлы к сообщениям
    Вы не можете скачивать файлы