BitTorrentTracker PerecTracker.org
BitTorrentTracker PerecTracker.org
    
Регистрация  ·  Вход
 
 · 
Забыли пароль?

  • Старшая сестра (Георгий Натансон) [1966 г., мелодрама, SATRip]

    Ответить на тему
     
    Автор Сообщение

    Light

    Создавать темы 06-Май-2015 08:42

           

    [Цитировать]

    Старшая сестраГод выпуска: 1966.
    Жанр: мелодрама.
    Продолжительность: 01:36:01.
    Режиссер: Георгий Натансон.
    В ролях:
    Татьяна Доронина, Михаил Жаров, Наталья Тенякова, Виталий Соломин, Леонид Куравлёв, Валентина Шарыкина, Евгений Евстигнеев, Олег Басилашвили, Инна Чурикова.
    Описание:
    Фильм повествует о том, что человек должен осуществиться, иначе - пропадёт. Ради чего бы он ни сгубил свои возможности - даже из скромности, даже из самых лучших побуждений, - он согрешил перед собой и перед людьми.
    Сестры - Лида и Надя - давно живут на попечении дяди, который взял их из детского дома. Простая житейская философия дяди вызывает у них улыбку, хотя он искренне мечтает о счастливой жизни для каждой. Девушки его понимают и, часто, наперекор собственным судьбам, следуют его совету. Так отказывается от своей мечты стать актрисой старшая сестра Надя. Но пройдут годы - и она придет в театр...

    Доп. информация:
    Страна: СССР .
    Киностудия: Мосфильм.
    Премьера: 6 марта 1967 года.
    Автор сценария: Александр Володин.
    Оператор: Валерий Владимиров.
    Композитор: Владлен Чистяков.
    Художник: Семен Ушаков.

    Еще постеры

    Релиз
    Рип с этой раздачи.
    Большое спасибо Cheef mate за предоставленый материал для рипа!!!

    Качество: SATRip
    Формат: AVI
    Видео: 640x304 (2.11:1), 25 fps, XviD build 73 ~958 kbps avg, 0.20 bit/pixel
    Аудио: 48 kHz, MPEG Layer 3, 2 ch, ~128.00 kbps avg

    Отчет MI

    General
    Complete name : Starshaya.sestra.1966.XviD.SATRip.fenixclub_752.avi
    Формат : AVI
    Формат/Информация : Audio Video Interleave
    Размер файла : 753 Мбайт
    Продолжительность : 1 ч. 36 м.
    Общий поток : 1096 Кбит/сек
    Программа кодирования : VirtualDubMod 1.5.10.3 | www.virtualdub-fr.org || (build 2550/release)
    Библиотека кодирования : VirtualDubMod build 2550/release
    Видео
    Идентификатор : 0
    Формат : MPEG-4 Visual
    Профиль формата : Advanced Simple@L5
    Параметр BVOP формата : 1
    Параметр QPel формата : Нет
    Параметр GMC формата : Без точки перехода
    Параметр матрицы формата : Выборочная
    Идентификатор кодека : XVID
    Идентификатор кодека/Подсказка : XviD
    Продолжительность : 1 ч. 36 м.
    Битрейт : 958 Кбит/сек
    Ширина : 640 пикселей
    Высота : 304 пикселя
    Соотношение сторон : 2,105
    Частота кадров : 25,000 кадров/сек
    Цветовое пространство : YUV
    Субдискретизация насыщенности : 4:2:0
    Битовая глубина : 8 бит
    Тип развёртки : Прогрессивная
    Метод сжатия : С потерями
    Бит/(Пиксели*Кадры) : 0.197
    Размер потока : 658 Мбайт (87%)
    Библиотека кодирования : XviD 73
    Аудио
    Идентификатор : 1
    Формат : MPEG Audio
    Версия формата : Version 1
    Профиль формата : Layer 3
    Идентификатор кодека : 55
    Идентификатор кодека/Подсказка : MP3
    Продолжительность : 1 ч. 36 м.
    Вид битрейта : Постоянный
    Битрейт : 128 Кбит/сек
    Каналы : 2 канала
    Частота : 48,0 КГц
    Метод сжатия : С потерями
    Размер потока : 87,9 Мбайт (12%)
    Выравнивание : Соединение по промежуткам
    Продолжительность промежутка : 40 мс. (1,00 видеокадр)
    Время предзагрузки промежутка : 504 мс.
    Библиотека кодирования : LAME3.99r
    Настройки программы : -m s -V 4 -q 2 -lowpass 17 -b 128
    Скриншоты

    Альтернативный хост

    Скачать .torrent

    Скачать торрент-файл бесплатно и на максимальной скорости!

    Как скачивать? · Что такое торрент? · Рейтинг и ограничения

    !ВНИМАНИЕ!
    Сайт не распространяет и не хранит электронные версии произведений, а занимается лишь лишь предоставлением доступа к создаваемому пользователями каталогу ссылок на торрент-файлы, которые содержат только списки хеш-сумм, убедительная просьба с жалобами обращаться напрямую к пользователю. Файлы для обмена на трекере предоставлены пользователями сайта, и администрация не несёт ответственности за их содержание. Просьба не заливать файлы, защищенные авторскими правами, а также файлы нелегального содержания!


    _________________
    [Профиль] [ЛС]
    Показать сообщения:    
    Ответить на тему

    Текущее время: Сегодня, в 23:12

    Часовой пояс: GMT + 2



    Вы не можете начинать темы
    Вы не можете отвечать на сообщения
    Вы не можете редактировать свои сообщения
    Вы не можете удалять свои сообщения
    Вы не можете голосовать в опросах
    Вы не можете прикреплять файлы к сообщениям
    Вы не можете скачивать файлы