BitTorrentTracker PerecTracker.org
BitTorrentTracker PerecTracker.org
    
Регистрация  ·  Вход
 
 · 
Забыли пароль?

  • Погоня в степи (Абдулла Карсакбаев) [1979, исторический фильм, приключения, VHSRip]

    Ответить на тему
     
    Автор Сообщение

    Light

    Создавать темы 06-Май-2015 00:18

           

    [Цитировать]

    Погоня в степи
    Жанр: исторический фильм, приключения
    Год выпуска: 1979
    Продолжительность: 01:25:20
    Режиссёр: Абдулла Карсакбаев
    В ролях: Досхан Жолжаксынов, Гульнара Дусматова, Улдис Лиелдидж, Ашир Чокубаев, Байтен Омаров, Владимир Ерёмин, Игорь Васильев, Мухтар Бахтыгереев, Джамбул Худайбергенов, Болат Калымбетов, Михаил Васильев, Виталий Гришко
    Описание: О борьбе красного командира Хамиты с отрядом бандита Кудри, бесчинствующем в степных казахских аулах.
    Доп. информация: Премьера: февраль 1980 (Москва)
    Приз ЦК ЛКСМ Таджикистана на ВКФ-80 в Душанбе.
    Семпл: https://www.sendspace.com/file/2rlau3
    Качество видео: VHSRip
    Формат видео: AVI
    Видео: 640x352 (1.82:1),25 fps,XviD build 50,1186 kbps avg,0.21 bit/pixel.
    Аудио: 44.100 kHz,MPEG Layer 3,2 ch,120.32 kbps avg.

    MediaInfo

    Общее
    Полное имя : E:\ПОГОНЯ В СТЕПИ (1979)xvid.avi
    Формат : AVI
    Формат/Информация : Audio Video Interleave
    Размер файла : 806 Мбайт
    Продолжительность : 1 ч. 25 м.
    Режим общего битрейта : Переменный
    Общий поток : 1320 Кбит/сек
    Программа кодирования : MEncoder Sherpya-SVN-r32492-4.2.5
    Библиотека кодирования : MPlayer
    Видео
    Идентификатор : 0
    Формат : MPEG-4 Visual
    Профиль формата : Simple@L3
    Параметр BVOP формата : Нет
    Параметр QPel формата : Нет
    Параметр GMC формата : Без точки перехода
    Параметр матрицы формата : Default (H.263)
    Идентификатор кодека : XVID
    Идентификатор кодека/Подсказка : XviD
    Продолжительность : 1 ч. 25 м.
    Битрейт : 1187 Кбит/сек
    Ширина : 640 пикселей
    Высота : 352 пикселя
    Соотношение сторон : 16:9
    Частота кадров : 25,000 кадров/сек
    Цветовое пространство : YUV
    Субдискретизация насыщенности : 4:2:0
    Битовая глубина : 8 бит
    Тип развёртки : Прогрессивная
    Метод сжатия : С потерями
    Бит/(Пиксели*Кадры) : 0.211
    Размер потока : 725 Мбайт (90%)
    Библиотека кодирования : XviD 1.2.1 (UTC 2008-12-04)
    Аудио
    Идентификатор : 1
    Формат : MPEG Audio
    Версия формата : Version 1
    Профиль формата : Layer 3
    Режим : Joint stereo
    Расширение режима : MS Stereo
    Идентификатор кодека : 55
    Идентификатор кодека/Подсказка : MP3
    Продолжительность : 1 ч. 25 м.
    Вид битрейта : Переменный
    Битрейт : 120 Кбит/сек
    Каналы : 2 канала
    Частота : 44,1 КГц
    Метод сжатия : С потерями
    Размер потока : 73,4 Мбайт (9%)
    Выравнивание : Соединение по промежуткам
    Продолжительность промежутка : 26 мс. (0,65 видеокадр)
    Время предзагрузки промежутка : 481 мс.

    Скриншоты

    Скачать .torrent

    Скачать торрент-файл бесплатно и на максимальной скорости!

    Как скачивать? · Что такое торрент? · Рейтинг и ограничения

    !ВНИМАНИЕ!
    Сайт не распространяет и не хранит электронные версии произведений, а занимается лишь лишь предоставлением доступа к создаваемому пользователями каталогу ссылок на торрент-файлы, которые содержат только списки хеш-сумм, убедительная просьба с жалобами обращаться напрямую к пользователю. Файлы для обмена на трекере предоставлены пользователями сайта, и администрация не несёт ответственности за их содержание. Просьба не заливать файлы, защищенные авторскими правами, а также файлы нелегального содержания!


    _________________
    [Профиль] [ЛС]
    Показать сообщения:    
    Ответить на тему

    Текущее время: Сегодня, в 08:09

    Часовой пояс: GMT + 2



    Вы не можете начинать темы
    Вы не можете отвечать на сообщения
    Вы не можете редактировать свои сообщения
    Вы не можете удалять свои сообщения
    Вы не можете голосовать в опросах
    Вы не можете прикреплять файлы к сообщениям
    Вы не можете скачивать файлы