BitTorrentTracker PerecTracker.org
BitTorrentTracker PerecTracker.org
    
Регистрация  ·  Вход
 
 · 
Забыли пароль?

  • Угроза заражения / Infected (Гленн Чиано / Glenn Ciano) [2012, США, ужасы, фантастика, боевик, WEB-DL 720p] MVO + 2x VO (den904, Cmert) + Original (Eng) + Sub (Eng)

    Ответить на тему
     
    Автор Сообщение

    Flirldrerve

    Создавать темы 05-Май-2015 20:06

           

    [Цитировать]

    Угроза заражения / InfectedСтрана: США
    Студия: Woodhaven Production Company
    Жанр: ужасы, фантастика, боевик
    Год выпуска: 2012
    Продолжительность: 01:34:59
    Перевод:
  • Профессиональный (многоголосый закадровый)
  • Одноголосый закадровый den904
  • Одноголосый закадровый Cmert
    Cубтитры: английские
    Оригинальная аудиодорожка: английский
    Режиссер: Гленн Чиано / Glenn Ciano
    В ролях: Майкл Мэдсен, Кристи Карлсон Романо, Уильям Форсайт, Джонни Чикко, Кристи Дрэйк, Дэвид Гир, Том ДеНуччи, Майкл Николози, Карлин Форнье, Майк Майклс
    Описание:
    Отец и сын любители поохотиться на оленей. Каждый год они приезжают в охотничий клуб, где встречают старых знакомых и вместе отправляются убивать невинных животных. И всё бы ничего если бы не одна заболевшая и пропавшая в лесах старушка с весьма странными симптомами Мать одного и, по совместительству, жена второго главных героев по телевизору узнаёт об ужасном вирусе (бешенстве) который передаётся от оленей к людям и, конечно же, спешит предупредить своих близких. Жаль, что они уже ушли глубоко в лес и опробовали первую рогатую жертву на вкус.
    - || || || -Тип релиза: WEB-DL 720p
    Контейнер: MKV
    Видео: AVC (x264), 1280x720 (16:9) at 23,976 fps, 3786 Кbps, 0.172 bpp
    Аудио 1: AC3; 448 Kbps; CBR; 6 ch; 48 khz | MVO |
    Аудио 2: AC3; 448 Kbps; CBR; 6 ch; 48 khz | VO - den904 |
    Аудио 3: AC3; 192 Kbps; CBR; 2 ch; 48 khz | VO - Cmert |
    Аудио 4: AC3; 448 Kbps; CBR; 6 ch; 48 khz | Английский |
    Формат субтитров: softsub (SRT)

    Скриншоты || x264 Info || MediaInfo || Notes
    Notes: Оригинальная аудио дорожка взята с Infected.2013.DVDR-IGUANA, сравнение спектров
    Окромя этого, на WEB-DL была фактически стерео дорожка - на двд же была честная 6-ти каналка
    Аудио дорожка 1 взята с этой раздачи, thx: tеko
    Аудио дорожка 3 взята с этой раздачи, thx: Шнык
    из неё вычищен фоновый шум от микрофона, убран клиппинг

    MediaInfo

    General
    Unique ID                                : 183649058309541948788590054326335094331 (0x8A2985A618C99B399D28709204B2BE3B)
    Complete name                            : Угроза заражения.2013.P.720p.WEB-DL.x264-NGB.mkv
    Format                                   : Matroska
    Format version                           : Version 4 / Version 2
    File size                                : 3.60 GiB
    Duration                                 : 1h 34mn
    Overall bit rate                         : 5 430 Kbps
    Movie name                               : Infected [2013] [720p] MVO, 2x VO
    Encoded date                             : UTC 2015-05-03 07:24:22
    Writing application                      : mkvmerge v7.8.0 ('River Man') 32bit built on Mar 27 2015 16:18:02
    Writing library                          : libebml v1.3.1 + libmatroska v1.4.2
    Video
    ID                                       : 1
    Format                                   : AVC
    Format/Info                              : Advanced Video Codec
    Format profile                           : High@L3.1
    Format settings, CABAC                   : No
    Format settings, ReFrames                : 2 frames
    Codec ID                                 : V_MPEG4/ISO/AVC
    Duration                                 : 1h 34mn
    Bit rate                                 : 3 786 Kbps
    Width                                    : 1 280 pixels
    Height                                   : 720 pixels
    Display aspect ratio                     : 16:9
    Frame rate mode                          : Constant
    Frame rate                               : 23.976 fps
    Color space                              : YUV
    Chroma subsampling                       : 4:2:0
    Bit depth                                : 8 bits
    Scan type                                : Progressive
    Bits/(Pixel*Frame)                       : 0.171
    Stream size                              : 2.51 GiB (70%)
    Title                                    : profile.php?mode=viewprofile&u=22488948
    Language                                 : English
    Default                                  : Yes
    Forced                                   : No
    Color primaries                          : BT.709
    Transfer characteristics                 : BT.709
    Matrix coefficients                      : BT.709
    Color range                              : Limited
    Audio #1
    ID                                       : 2
    Format                                   : AC-3
    Format/Info                              : Audio Coding 3
    Mode extension                           : CM (complete main)
    Format settings, Endianness              : Big
    Codec ID                                 : A_AC3
    Duration                                 : 1h 34mn
    Bit rate mode                            : Constant
    Bit rate                                 : 448 Kbps
    Channel(s)                               : 6 channels
    Channel positions                        : Front: L C R, Side: L R, LFE
    Sampling rate                            : 48.0 KHz
    Bit depth                                : 16 bits
    Compression mode                         : Lossy
    Stream size                              : 304 MiB (8%)
    Title                                    : P, MVO
    Language                                 : Russian
    Default                                  : Yes
    Forced                                   : No
    Audio #2
    ID                                       : 3
    Format                                   : AC-3
    Format/Info                              : Audio Coding 3
    Mode extension                           : CM (complete main)
    Format settings, Endianness              : Big
    Codec ID                                 : A_AC3
    Duration                                 : 1h 34mn
    Bit rate mode                            : Constant
    Bit rate                                 : 448 Kbps
    Channel(s)                               : 6 channels
    Channel positions                        : Front: L C R, Side: L R, LFE
    Sampling rate                            : 48.0 KHz
    Bit depth                                : 16 bits
    Compression mode                         : Lossy
    Stream size                              : 304 MiB (8%)
    Title                                    : VO [den904]
    Language                                 : Russian
    Default                                  : No
    Forced                                   : No
    Audio #3
    ID                                       : 4
    Format                                   : AC-3
    Format/Info                              : Audio Coding 3
    Mode extension                           : CM (complete main)
    Format settings, Endianness              : Big
    Codec ID                                 : A_AC3
    Duration                                 : 1h 34mn
    Bit rate mode                            : Constant
    Bit rate                                 : 192 Kbps
    Channel(s)                               : 2 channels
    Channel positions                        : Front: L R
    Sampling rate                            : 48.0 KHz
    Bit depth                                : 16 bits
    Compression mode                         : Lossy
    Stream size                              : 130 MiB (4%)
    Title                                    : VO [Cmert]
    Language                                 : Russian
    Default                                  : No
    Forced                                   : No
    Audio #4
    ID                                       : 5
    Format                                   : AC-3
    Format/Info                              : Audio Coding 3
    Mode extension                           : CM (complete main)
    Format settings, Endianness              : Big
    Codec ID                                 : A_AC3
    Duration                                 : 1h 34mn
    Bit rate mode                            : Constant
    Bit rate                                 : 448 Kbps
    Channel(s)                               : 6 channels
    Channel positions                        : Front: L C R, Side: L R, LFE
    Sampling rate                            : 48.0 KHz
    Bit depth                                : 16 bits
    Compression mode                         : Lossy
    Stream size                              : 304 MiB (8%)
    Language                                 : English
    Default                                  : No
    Forced                                   : No
    Text
    ID                                       : 6
    Format                                   : UTF-8
    Codec ID                                 : S_TEXT/UTF8
    Codec ID/Info                            : UTF-8 Plain Text
    Language                                 : English
    Default                                  : No
    Forced                                   : No
    Menu
    00:00:00.000                             : en:World Has Changed
    00:09:20.000                             : en:My Office
    00:19:13.000                             : en:Bad News
    00:31:04.000                             : en:Feast
    00:39:01.000                             : en:Madness
    00:47:18.000                             : en:Something Out There
    01:00:45.000                             : en:Changing
    01:10:32.000                             : en:Open the Door
    01:20:04.000                             : en:Overwhelmed
    01:30:30.000                             : en:Credits
    Скачать .torrent

    Скачать торрент-файл бесплатно и на максимальной скорости!

    Как скачивать? · Что такое торрент? · Рейтинг и ограничения

    !ВНИМАНИЕ!
    Сайт не распространяет и не хранит электронные версии произведений, а занимается лишь лишь предоставлением доступа к создаваемому пользователями каталогу ссылок на торрент-файлы, которые содержат только списки хеш-сумм, убедительная просьба с жалобами обращаться напрямую к пользователю. Файлы для обмена на трекере предоставлены пользователями сайта, и администрация не несёт ответственности за их содержание. Просьба не заливать файлы, защищенные авторскими правами, а также файлы нелегального содержания!


  • _________________
    [Профиль] [ЛС]
    Показать сообщения:    
    Ответить на тему

    Текущее время: Сегодня, в 18:23

    Часовой пояс: GMT + 2



    Вы не можете начинать темы
    Вы не можете отвечать на сообщения
    Вы не можете редактировать свои сообщения
    Вы не можете удалять свои сообщения
    Вы не можете голосовать в опросах
    Вы не можете прикреплять файлы к сообщениям
    Вы не можете скачивать файлы