Register  ·  Log in
Forgot password?

  • Жить (Юрий Быков) [2010, Россия, триллер, драма, криминал, HDTV 1080i]

    Reply to topic
    Author Message


    Post 05-May-2015 21:06



    Страна: Россия
    Студия: ТПО Рок
    Жанр: триллер, драма, криминал
    Год выпуска: 2010
    Продолжительность: 1:11:44
    Перевод: Не требуется
    Cубтитры: нет
    Оригинальная аудиодорожка: русский
    Режиссер: Юрий Быков
    В ролях: Денис Шведов
    Владислав Толдыков
    Алексей Комашко
    Константин Стрельников
    Сергей Жарков
    Сергей Сосновский
    Сергей Беляев
    Описание: Дикие места. Трое преследуют пожилого охотника и молодого парня. Один — проводник, второй — боец. Незнакомые, чуждые друг другу люди должны вместе выжить и добраться до города. Какова цена жизни? На этот вопрос каждый ответит по-своему.
    Тип релиза: HDTV 1080i
    Контейнер: TS
    Видео: AVC/H.264, 1920x1080 (16:9), 7543 Кбит/сек, 25.000 fps
    Аудио: AC3, 48000 Hz, 448 Кбит/сек, 5.1 ch


    ID : 1 (0x1)
    Complete name : D:\Жить.ts
    Format : MPEG-TS
    File size : 4.21 GiB
    Duration : 1h 11mn
    Overall bit rate mode : Variable
    Overall bit rate : 8 411 Kbps
    ID : 3551 (0xDDF)
    Menu ID : 1 (0x1)
    Format : AVC
    Format/Info : Advanced Video Codec
    Format profile : Main@L4
    Format settings, CABAC : Yes
    Format settings, ReFrames : 3 frames
    Codec ID : 27
    Duration : 1h 11mn
    Bit rate : 7 543 Kbps
    Width : 1 920 pixels
    Height : 1 080 pixels
    Display aspect ratio : 16:9
    Frame rate : 25.000 fps
    Standard : Component
    Color space : YUV
    Chroma subsampling : 4:2:0
    Bit depth : 8 bits
    Scan type : Interlaced
    Scan order : Top Field First
    Bits/(Pixel*Frame) : 0.146
    Stream size : 3.78 GiB (90%)
    Color range : Limited
    Color primaries : BT.709
    Transfer characteristics : BT.709
    Matrix coefficients : BT.709
    ID : 3553 (0xDE1)
    Menu ID : 1 (0x1)
    Format : AC-3
    Format/Info : Audio Coding 3
    Mode extension : CM (complete main)
    Format settings, Endianness : Big
    Codec ID : 6
    Duration : 1h 11mn
    Bit rate mode : Constant
    Bit rate : 448 Kbps
    Channel(s) : 6 channels
    Channel positions : Front: L C R, Side: L R, LFE
    Sampling rate : 48.0 KHz
    Compression mode : Lossy
    Stream size : 230 MiB (5%)
    Language : Russian


    Download .torrent

    Download free and at maximum speed!

    How to Download? · What is a torrent? · Ratings and Limitations

    The site does not extend and does not store electronic(digital) versions of products, and only gives access to a reference catalogue created by users on torrent-files which contain only lists of the hash-sums, the earnest entreaty, with complaints(abuse) to access directly to the user. Files for an exchange on tracker are given by users of a site, and the administration does not bear the responsibility for their maintenance. The request to not fill in the files protected by copyrights, and also files of the illegal maintenance!

    [Profile] [PM]
    Display posts from previous:    
    Reply to topic

    The time now is: Today 03:35

    All times are GMT + 3 Hours

    You cannot post new topics in this forum
    You cannot reply to topics in this forum
    You cannot edit your posts in this forum
    You cannot delete your posts in this forum
    You cannot vote in polls in this forum
    You cannot attach files in this forum
    You cannot download files in this forum