BitTorrentTracker PerecTracker.org
BitTorrentTracker PerecTracker.org
    
Регистрация  ·  Вход
 
 · 
Забыли пароль?

  • Башня (Виктор Трегубович) [1987 г., драма, SATRip]

    Ответить на тему
     
    Автор Сообщение

    Light

    Создавать темы 05-Май-2015 20:06

           

    [Цитировать]

    БашняГод выпуска: 1987.
    Жанр: драма.
    Продолжительность: 01:22:49.
    Режиссер: Виктор Трегубович.
    В ролях:
    Алексей Ясулович, Ирина Апексимова, Георгий Бурков, Ольга Остроумова, Иван Агафонов, Раиса Рязанова, Сергей Сазонтьев, Вадим Лобанов, Светлана Гайтан.
    Описание:
    Действие фильма разворачивается недалеко от водонапорной башни, расположенной рядом с дорогой. При башне живёт механик, который и обслуживает сооружение. У механика есть семья — жена и сын-инвалид.
    Однажды возле башни ломается богатый автомобиль. Его владельцы — богатая семья, из-за поломки им приходится остановиться и искать помощи у обитателей башни. Пребывание в гостях оказывается слишким долгим, а место возле башни странным и страшным.

    Доп. информация:
    Страна: СССР .
    Киностудия: Ленфильм.
    Премьера: август 1988 года.
    Автор сценария: Александр Александров.
    Оператор: Валерий Мюльгаут.
    Композитор: Игорь Цветков.
    Художники: Михаил Гаврилов, Грачья Мекинян.

    Еще постер

    Релиз
    Рип с этой раздачи.
    Большое спасибо Cheef mate за предоставленый материал для рипа!!!

    Качество: SATRip
    Формат: AVI
    Видео: 640x496 (1.29:1), 25 fps, XviD build 73 ~1119 kbps avg, 0.14 bit/pixel
    Аудио: 48 kHz, MPEG Layer 3, 2 ch, ~128.00 kbps avg

    Отчет MI

    General
    Complete name : Bashnya.1987.XviD.SATRip.fenixclub_744.avi
    Формат : AVI
    Формат/Информация : Audio Video Interleave
    Размер файла : 745 Мбайт
    Продолжительность : 1 ч. 22 м.
    Общий поток : 1257 Кбит/сек
    Программа кодирования : VirtualDubMod 1.5.10.3 | www.virtualdub-fr.org || (build 2550/release)
    Библиотека кодирования : VirtualDubMod build 2550/release
    Видео
    Идентификатор : 0
    Формат : MPEG-4 Visual
    Профиль формата : Advanced Simple@L5
    Параметр BVOP формата : 1
    Параметр QPel формата : Нет
    Параметр GMC формата : Без точки перехода
    Параметр матрицы формата : Выборочная
    Идентификатор кодека : XVID
    Идентификатор кодека/Подсказка : XviD
    Продолжительность : 1 ч. 22 м.
    Битрейт : 1120 Кбит/сек
    Ширина : 640 пикселей
    Высота : 496 пикселей
    Соотношение сторон : 1,290
    Частота кадров : 25,000 кадров/сек
    Цветовое пространство : YUV
    Субдискретизация насыщенности : 4:2:0
    Битовая глубина : 8 бит
    Тип развёртки : Прогрессивная
    Метод сжатия : С потерями
    Бит/(Пиксели*Кадры) : 0.141
    Размер потока : 663 Мбайт (89%)
    Библиотека кодирования : XviD 73
    Аудио
    Идентификатор : 1
    Формат : MPEG Audio
    Версия формата : Version 1
    Профиль формата : Layer 3
    Идентификатор кодека : 55
    Идентификатор кодека/Подсказка : MP3
    Продолжительность : 1 ч. 22 м.
    Вид битрейта : Постоянный
    Битрейт : 128 Кбит/сек
    Каналы : 2 канала
    Частота : 48,0 КГц
    Метод сжатия : С потерями
    Размер потока : 75,8 Мбайт (10%)
    Выравнивание : Соединение по промежуткам
    Продолжительность промежутка : 40 мс. (1,00 видеокадр)
    Время предзагрузки промежутка : 504 мс.
    Библиотека кодирования : LAME3.99r
    Настройки программы : -m s -V 4 -q 2 -lowpass 17 -b 128
    Скриншоты

    Альтернативный хост

    Скачать .torrent

    Скачать торрент-файл бесплатно и на максимальной скорости!

    Как скачивать? · Что такое торрент? · Рейтинг и ограничения

    !ВНИМАНИЕ!
    Сайт не распространяет и не хранит электронные версии произведений, а занимается лишь лишь предоставлением доступа к создаваемому пользователями каталогу ссылок на торрент-файлы, которые содержат только списки хеш-сумм, убедительная просьба с жалобами обращаться напрямую к пользователю. Файлы для обмена на трекере предоставлены пользователями сайта, и администрация не несёт ответственности за их содержание. Просьба не заливать файлы, защищенные авторскими правами, а также файлы нелегального содержания!


    _________________
    [Профиль] [ЛС]
    Показать сообщения:    
    Ответить на тему

    Текущее время: Сегодня, в 14:02

    Часовой пояс: GMT + 2



    Вы не можете начинать темы
    Вы не можете отвечать на сообщения
    Вы не можете редактировать свои сообщения
    Вы не можете удалять свои сообщения
    Вы не можете голосовать в опросах
    Вы не можете прикреплять файлы к сообщениям
    Вы не можете скачивать файлы