BitTorrentTracker PerecTracker.org
BitTorrentTracker PerecTracker.org
    
Регистрация  ·  Вход
 
 · 
Забыли пароль?

  • Белые росы (Игорь Добролюбов) [1983, комедия, HDTVRip-AVC]

    Ответить на тему
     
    Автор Сообщение

    Light

    Создавать темы 05-Май-2015 20:06

           

    [Цитировать]

    Белые росы-Жанр: комедия
    Год выпуска: 1983
    Продолжительность: 01:23:36
    Cубтитры: русские-Режиссёр: Игорь Добролюбов-В ролях:
    Всеволод Санаев, Николай Караченцов, Станислав Садальский, Михаил Кокшенов, Галина Польских, Борис Новиков, Наталья Харахорина, Александр Беспалый, Юлия Космачева, Стефания Станюта, Геннадий Гарбук, Ирина Егорова
    Описание:
    Ветеран труда и трех войн, уважаемый человек в деревне Белые росы - Федор Ходас давно овдовел и имеет трех взрослых сыновей. Старший чрезмерно расчетлив, младший чересчур весел. Средний уехал на Курилы и каков он теперь отцу неведомо. Но за всех у старика душа болит, особенно за младшего балагура…-Исходник | Сэмпл | Кинопоиск-Качество видео: HDTVRip-AVC, спасибо SLuMeP
    Формат видео: MKV
    Видео: x264 (High@L4.1); 1150x648, Display aspect ratio 1.775:1, 25.000 fps, 3537 Kbps
    Аудио: AC-3; 16 bit 48 Khz; 2.0ch 192 Kbps; CBR
    Формат субтитров: softsub (SRT)
    MediaInfo

    -

    x264 log

    avs [info]: 1150x648p 1:1 @ 25/1 fps (cfr)
    x264 [info]: using SAR=1/1
    x264 [info]: using cpu capabilities: MMX2 SSE2Fast SSSE3 SSE4.2
    x264 [info]: profile High, level 4.1
    x264 [info]: frame I:629 Avg QP:15.72 size:129644
    x264 [info]: frame P:32677 Avg QP:18.55 size: 45288
    x264 [info]: frame B:92104 Avg QP:22.46 size: 7125
    x264 [info]: consecutive B-frames: 3.2% 5.9% 12.5% 31.8% 19.9% 23.0% 3.0% 0.7%
    x264 [info]: mb I I16..4: 2.5% 78.1% 19.4%
    x264 [info]: mb P I16..4: 1.0% 8.6% 1.2% P16..4: 32.9% 39.0% 16.5% 0.0% 0.0% skip: 0.8%
    x264 [info]: mb B I16..4: 0.1% 0.8% 0.1% B16..8: 34.0% 19.3% 2.7% direct: 4.8% skip:38.2% L0:33.7% L1:47.1% BI:19.1%
    x264 [info]: 8x8 transform intra:79.2% inter:57.8%
    x264 [info]: direct mvs spatial:99.3% temporal:0.7%
    x264 [info]: coded y,uvDC,uvAC intra: 81.3% 77.9% 44.4% inter: 25.0% 25.9% 11.3%
    x264 [info]: i16 v,h,dc,p: 17% 16% 6% 60%
    x264 [info]: i8 v,h,dc,ddl,ddr,vr,hd,vl,hu: 15% 10% 7% 8% 11% 12% 11% 12% 13%
    x264 [info]: i4 v,h,dc,ddl,ddr,vr,hd,vl,hu: 20% 10% 5% 7% 12% 14% 11% 10% 11%
    x264 [info]: i8c dc,h,v,p: 34% 27% 23% 16%
    x264 [info]: Weighted P-Frames: Y:5.6% UV:0.9%
    x264 [info]: ref P L0: 55.4% 15.4% 15.3% 3.2% 2.8% 1.9% 1.8% 1.0% 1.0% 0.8% 1.0% 0.2% 0.0%
    x264 [info]: ref B L0: 91.5% 5.6% 1.1% 0.5% 0.4% 0.3% 0.3% 0.2% 0.1% 0.1%
    x264 [info]: ref B L1: 96.4% 3.6%
    x264 [info]: kb/s:3536.66
    x264 [total]: encoded 125410 frames, 8.97 fps, 3536.66 kb/s, duration 3:52:54.64
    -General
    Unique ID : 249460914678561383865853387145679776616 (0xBBAC6CAF878AFA7888B59813D564AB68)
    Complete name : Белые росы.1983.mkv
    Format : Matroska
    Format version : Version 2
    File size : 2.18 GiB
    Duration : 1h 23mn
    Overall bit rate : 3 730 Kbps
    Movie name : «Белые росы»
    Encoded date : UTC 2015-05-04 08:55:27
    Writing application : mkvmerge v5.8.0 ('No Sleep / Pillow') built on Sep 2 2012 15:37:04
    Writing library : libebml v1.2.3 + libmatroska v1.3.0
    Comment : HDTVRip-AVC
    Originally released : May 4th 2015
    Encoded by : george$t®
    Video
    ID : 1
    Format : AVC
    Format/Info : Advanced Video Codec
    Format profile : High@L4.1
    Format settings, CABAC : Yes
    Format settings, ReFrames : 11 frames
    Codec ID : V_MPEG4/ISO/AVC
    Duration : 1h 23mn
    Bit rate : 3 537 Kbps
    Width : 1 150 pixels
    Height : 648 pixels
    Display aspect ratio : 16:9
    Frame rate mode : Constant
    Frame rate : 25.000 fps
    Color space : YUV
    Chroma subsampling : 4:2:0
    Bit depth : 8 bits
    Scan type : Progressive
    Bits/(Pixel*Frame) : 0.190
    Stream size : 2.02 GiB (93%)
    Title : Белые росы.1983
    Writing library : x264 core 146 r2538kMod 121396c
    Encoding settings : cabac=1 / ref=11 / deblock=1:-2:-2 / analyse=0x3:0x113 / me=umh / subme=11 / psy=1 / fade_compensate=0.00 / psy_rd=1.03:0.05 / mixed_ref=1 / me_range=48 / chroma_me=1 / trellis=2 / 8x8dct=1 / cqm=0 / deadzone=21,11 / fast_pskip=0 / chroma_qp_offset=-3 / threads=12 / lookahead_threads=2 / sliced_threads=0 / nr=0 / decimate=0 / interlaced=0 / bluray_compat=0 / constrained_intra=0 / fgo=0 / bframes=7 / b_pyramid=2 / b_adapt=2 / b_bias=0 / direct=3 / weightb=1 / open_gop=0 / weightp=2 / keyint=250 / keyint_min=25 / scenecut=40 / intra_refresh=0 / rc_lookahead=75 / rc=2pass / mbtree=1 / bitrate=3537 / ratetol=1.0 / qcomp=0.65 / qpmin=0 / qpmax=32 / qpstep=4 / cplxblur=20.0 / qblur=0.5 / vbv_maxrate=50000 / vbv_bufsize=62500 / nal_hrd=none / filler=0 / ip_ratio=1.35 / aq=1:0.80
    Language : Russian
    Default : Yes
    Forced : No
    Color primaries : BT.709
    Transfer characteristics : BT.709
    Matrix coefficients : BT.709
    Color range : Limited
    Audio
    ID : 2
    Format : AC-3
    Format/Info : Audio Coding 3
    Mode extension : CM (complete main)
    Format settings, Endianness : Big
    Codec ID : A_AC3
    Duration : 1h 23mn
    Bit rate mode : Constant
    Bit rate : 192 Kbps
    Channel(s) : 2 channels
    Channel positions : Front: L R
    Sampling rate : 48.0 KHz
    Bit depth : 16 bits
    Compression mode : Lossy
    Stream size : 115 MiB (5%)
    Title : AC-3; 16 bit 48 Khz; 2.0ch 192 Kbps; CBR
    Language : Russian
    Default : Yes
    Forced : No
    Text
    ID : 3
    Format : UTF-8
    Codec ID : S_TEXT/UTF8
    Codec ID/Info : UTF-8 Plain Text
    Title : Субтитры русские
    Language : Russian
    Default : No
    Forced : No
    Menu
    00:00:00.000 : ru:Вступление
    00:05:38.680 : ru:Средний сын
    00:09:55.280 : ru:Младший сын
    00:14:45.200 : ru:Кисель вернулся
    00:22:15.120 : ru:Семейные проблемы
    00:27:17.440 : ru:Наследство
    00:32:37.640 : ru:Народная медицина
    00:35:12.240 : ru:Чья дочь?
    00:42:36.360 : ru:Пойдём разводиться
    00:46:20.120 : ru:15 суток
    00:50:30.720 : ru:Ордер
    00:54:55.600 : ru:Отметим!
    01:04:32.320 : ru:Подмена
    01:09:11.680 : ru:Смотрины
    01:14:54.880 : ru:Свадьба
    01:19:21.720 : ru:Спасибо за всё!
    Скачать .torrent

    Скачать торрент-файл бесплатно и на максимальной скорости!

    Как скачивать? · Что такое торрент? · Рейтинг и ограничения

    !ВНИМАНИЕ!
    Сайт не распространяет и не хранит электронные версии произведений, а занимается лишь лишь предоставлением доступа к создаваемому пользователями каталогу ссылок на торрент-файлы, которые содержат только списки хеш-сумм, убедительная просьба с жалобами обращаться напрямую к пользователю. Файлы для обмена на трекере предоставлены пользователями сайта, и администрация не несёт ответственности за их содержание. Просьба не заливать файлы, защищенные авторскими правами, а также файлы нелегального содержания!


    _________________
    [Профиль] [ЛС]
    Показать сообщения:    
    Ответить на тему

    Текущее время: Сегодня, в 04:37

    Часовой пояс: GMT + 2



    Вы не можете начинать темы
    Вы не можете отвечать на сообщения
    Вы не можете редактировать свои сообщения
    Вы не можете удалять свои сообщения
    Вы не можете голосовать в опросах
    Вы не можете прикреплять файлы к сообщениям
    Вы не можете скачивать файлы