BitTorrentTracker PerecTracker.org
BitTorrentTracker PerecTracker.org
    
Регистрация  ·  Вход
 
 · 
Забыли пароль?

  • Руины в 3Д / Ruin 3D (Уэс Болл / Wes Ball) [2012, Короткометражка, мультфильм, BDrip-AVC] Interlaced / интерлейс

    Ответить на тему
     
    Автор Сообщение

    Flirldrerve

    Создавать темы 05-Май-2015 20:05

           

    [Цитировать]

    Руины в 3Д / Ruin 3D
    Год выпуска: 2012
    Страна: США
    Студия: Attraktion Films, Oddball Animation
    Жанр: Короткометражка, мультфильм
    Продолжительность: 00:08:11
    -
    Перевод: Не требуется
    Русские субтитры: есть
    Режиссер: Уэс Болл / Wes Ball
    -
    Описание: В будущем, когда города разрушились и были поглощены дикой природой, мы присоединяемся к одинокому человеку, исследующему руины компании Хэйвен Наносистемс. Обнаружив закрытый контейнер, он, кажется, нашел то, что искал - информацию, имеющую отношение к закрытому на карантин корпусу "Б". Но, в этот момент героя обнаруживает дрон и начинается погоня...
    -
    Сэмпл: http://dfiles.ru/files/iyhl48ez7
    -
    Качество: BDrip
    Контейнер: MKV
    Формат 3D: Чересстрочный / Interlace
    Порядок ракурсов: левый ракурс первый
    Видео кодек: x264
    Аудио кодек: AC3
    Видео: AVC / 23,976 fps / 1920х1080p / 16.5 Mbps
    Аудио: Английский / AC3 / 48 KHz / 5.1 ch / 448 Kbps (Original)
    Субтитры: Вшитые (softsub) - Русские Форсированные (включены)

    MediaInfo

    General
    Unique ID : 6742518235187206995797608588928527007 (0x5128FD09D9C1CED8D04091CF64EAA9F)
    Complete name : F:\3D-Interlaced\Ruin_2012_3D-Interlaced_1080p_serj69.mkv
    Format : Matroska
    Format version : Version 4 / Version 2
    File size : 1 015 MiB
    Duration : 8mn 11s
    Overall bit rate : 17.3 Mbps
    Movie name : Руины / Ruin (2012) 3D
    Writing application : Lavf55.44.100
    Writing library : Lavf55.44.100
    Video
    ID : 1
    Format : AVC
    Format/Info : Advanced Video Codec
    Format profile : High 4:4:4 Predictive@L4
    Format settings, CABAC : Yes
    Format settings, ReFrames : 4 frames
    Codec ID : V_MPEG4/ISO/AVC
    Duration : 8mn 11s
    Bit rate : 16.5 Mbps
    Width : 1 920 pixels
    Height : 1 080 pixels
    Display aspect ratio : 16:9
    Frame rate mode : Constant
    Frame rate : 23.976 fps
    Color space : YUV
    Chroma subsampling : 4:4:4
    Bit depth : 8 bits
    Scan type : Progressive
    Bits/(Pixel*Frame) : 0.333
    Stream size : 969 MiB (95%)
    Title : BD3DRip by serj69
    Writing library : x264 core 146 r2538 121396c
    Encoding settings : cabac=1 / ref=3 / deblock=1:0:0 / analyse=0x3:0x113 / me=hex / subme=7 / psy=1 / psy_rd=1.00:0.00 / mixed_ref=1 / me_range=16 / chroma_me=1 / trellis=1 / 8x8dct=1 / cqm=0 / deadzone=21,11 / fast_pskip=1 / chroma_qp_offset=4 / threads=3 / lookahead_threads=1 / sliced_threads=0 / nr=0 / decimate=1 / interlaced=0 / bluray_compat=0 / constrained_intra=0 / bframes=3 / b_pyramid=2 / b_adapt=1 / b_bias=0 / direct=1 / weightb=1 / open_gop=0 / weightp=2 / keyint=250 / keyint_min=23 / scenecut=40 / intra_refresh=0 / rc_lookahead=40 / rc=crf / mbtree=1 / crf=19.0 / qcomp=0.60 / qpmin=0 / qpmax=69 / qpstep=4 / ip_ratio=1.40 / aq=1:1.00
    Language : English
    Default : Yes
    Forced : No
    Audio
    ID : 2
    Format : AC-3
    Format/Info : Audio Coding 3
    Mode extension : CM (complete main)
    Format settings, Endianness : Big
    Codec ID : A_AC3
    Duration : 8mn 11s
    Bit rate mode : Constant
    Bit rate : 448 Kbps
    Channel(s) : 6 channels
    Channel positions : Front: L C R, Side: L R, LFE
    Sampling rate : 48.0 KHz
    Compression mode : Lossy
    Stream size : 26.2 MiB (3%)
    Title : Original - BD 3D
    Default : Yes
    Forced : No
    Text
    ID : 3
    Format : ASS
    Codec ID : S_TEXT/ASS
    Codec ID/Info : Advanced Sub Station Alpha
    Compression mode : Lossless
    Title : Форсированные
    Writing library : Lavc55.67.100 ssa
    Language : Russian
    Default : Yes
    Forced : No

    Скриншоты






    Скачать .torrent

    Скачать торрент-файл бесплатно и на максимальной скорости!

    Как скачивать? · Что такое торрент? · Рейтинг и ограничения

    !ВНИМАНИЕ!
    Сайт не распространяет и не хранит электронные версии произведений, а занимается лишь лишь предоставлением доступа к создаваемому пользователями каталогу ссылок на торрент-файлы, которые содержат только списки хеш-сумм, убедительная просьба с жалобами обращаться напрямую к пользователю. Файлы для обмена на трекере предоставлены пользователями сайта, и администрация не несёт ответственности за их содержание. Просьба не заливать файлы, защищенные авторскими правами, а также файлы нелегального содержания!


    _________________
    [Профиль] [ЛС]
    Показать сообщения:    
    Ответить на тему

    Текущее время: Сегодня, в 06:04

    Часовой пояс: GMT + 2



    Вы не можете начинать темы
    Вы не можете отвечать на сообщения
    Вы не можете редактировать свои сообщения
    Вы не можете удалять свои сообщения
    Вы не можете голосовать в опросах
    Вы не можете прикреплять файлы к сообщениям
    Вы не можете скачивать файлы