BitTorrentTracker PerecTracker.org
BitTorrentTracker PerecTracker.org
    
Регистрация  ·  Вход
 
 · 
Забыли пароль?

  • Грязная кампания за честные выборы / The Campaign (Джей Роуч / Jay Roach) [2012, США, комедия, BDRip-AVC] [Театральная версия] MVO + Subs (Rus, Eng) + Original Eng

    Ответить на тему
     
    Автор Сообщение

    Light

    Создавать темы 05-Май-2015 20:05

           

    [Цитировать]

    Грязная кампания за честные выборы / The Campaign
    Театральная версия

    Страна: США
    Жанр: комедия
    Год выпуска: 2012
    Продолжительность: 01:25:29
    Перевод: Профессиональный (многоголосый закадровый)
    Cубтитры: русские, английские
    Оригинальная аудиодорожка: английский
    Режиссер: Джей Роуч / Jay Roach
    В ролях: Уилл Феррелл, Зак Галифианакис, Джейсон Судейкис, Сара Бэйкер, Дилан МакДермотт, Кэтрин ЛаНаса, Брайан Кокс, Джон Литгоу, Дэн Эйкройд, Карен Маруяма, Скотт А. Мартин
    Описание: Два конкурирующих политика Кэм Брэди и Марти Хаггинс, пытаются победить на выборах, чтобы представлять свой небольшой штат Северная Каролина в Палате представителей США. Каждый при этом использует свои методы для достижения наилучшего результата. Сэмпл: http://sendfile.su/1114743
    Качество видео: BDRip-AVC [Blu-ray Disc [EUR] -BLUEBIRD]
    Формат видео: MKV
    Видео: AVC, 1152 x 648 (16/9), 2789 kbps, 23,976 fps, 0.156 bpp
    Аудио: AC3, 6ch, 48 kHz, 448 kbps, 16 bit
    Аудио 2: AC3, 6ch, 48 kHz, 384 kbps, 16 bit
    Формат субтитров: softsub (SRT)

    MediaInfo

    Уникальный идентификатор : 238709224939357846967864187864104208310 (0xB395B97453047E8FB795F21E1F9E87B6)
    Полное имя : F:\Films\Kampania\Kampania.mkv
    Формат : Matroska
    Версия формата : Version 4 / Version 2
    Размер файла : 2,16 Гбайт
    Продолжительность : 1 ч. 25 м.
    Общий поток : 3611 Кбит/сек
    Дата кодирования : UTC 2015-05-04 13:31:05
    Программа кодирования : mkvmerge v7.7.0 ('Six Voices') 64bit built on Feb 28 2015 23:39:33
    Библиотека кодирования : libebml v1.3.1 + libmatroska v1.4.2
    _STATISTICS_WRITING_APP : mkvmerge v7.7.0 ('Six Voices') 64bit built on Feb 28 2015 23:39:33
    _STATISTICS_WRITING_DATE_UTC : 2015-05-04 13:31:05
    _STATISTICS_TAGS : BPS DURATION NUMBER_OF_FRAMES NUMBER_OF_BYTES
    DURATION : 01:24:41.533000000
    NUMBER_OF_FRAMES : 1494
    NUMBER_OF_BYTES : 70010
    Видео
    Идентификатор : 1
    Формат : AVC
    Формат/Информация : Advanced Video Codec
    Профиль формата : High@L4.1
    Параметр CABAC формата : Да
    Параметр ReFrames формата : 8 кадров
    Идентификатор кодека : V_MPEG4/ISO/AVC
    Продолжительность : 1 ч. 25 м.
    Битрейт : 2789 Кбит/сек
    Ширина : 1152 пикселя
    Высота : 648 пикселей
    Соотношение сторон : 16:9
    Режим частоты кадров : Постоянный
    Частота кадров : 23,976 кадра/сек
    Цветовое пространство : YUV
    Субдискретизация насыщенности : 4:2:0
    Битовая глубина : 8 бит
    Тип развёртки : Прогрессивная
    Бит/(Пиксели*Кадры) : 0.156
    Размер потока : 1,62 Гбайт (75%)
    Библиотека кодирования : x264 core 142 r2431 ac76440
    Настройки программы : cabac=1 / ref=8 / deblock=1:-2:-1 / analyse=0x3:0x133 / me=umh / subme=9 / psy=1 / psy_rd=1.00:0.05 / mixed_ref=0 / me_range=36 / chroma_me=1 / trellis=2 / 8x8dct=1 / cqm=0 / deadzone=21,11 / fast_pskip=0 / chroma_qp_offset=-3 / threads=4 / lookahead_threads=1 / sliced_threads=0 / nr=0 / decimate=0 / interlaced=0 / bluray_compat=0 / constrained_intra=0 / bframes=12 / b_pyramid=2 / b_adapt=2 / b_bias=0 / direct=1 / weightb=1 / open_gop=0 / weightp=2 / keyint=240 / keyint_min=23 / scenecut=40 / intra_refresh=0 / rc=2pass / mbtree=0 / bitrate=2789 / ratetol=1.0 / qcomp=0.70 / qpmin=10 / qpmax=69 / qpstep=4 / cplxblur=20.0 / qblur=0.5 / ip_ratio=1.40 / pb_ratio=1.30 / aq=1:1.00
    Default : Да
    Forced : Нет
    Аудио #1
    Идентификатор : 2
    Формат : AC-3
    Формат/Информация : Audio Coding 3
    Расширение режима : CM (complete main)
    Параметр Endianness формата : Big
    Идентификатор кодека : A_AC3
    Продолжительность : 1 ч. 25 м.
    Вид битрейта : Постоянный
    Битрейт : 448 Кбит/сек
    Каналы : 6 каналов
    Расположение каналов : Front: L C R, Side: L R, LFE
    Частота : 48,0 КГц
    Битовая глубина : 16 бит
    Метод сжатия : С потерями
    Размер потока : 274 Мбайт (12%)
    Заголовок : Русский, закадровый многоголосый
    Язык : Russian
    Default : Да
    Forced : Нет
    Аудио #2
    Идентификатор : 3
    Формат : AC-3
    Формат/Информация : Audio Coding 3
    Расширение режима : CM (complete main)
    Параметр Endianness формата : Big
    Идентификатор кодека : A_AC3
    Продолжительность : 1 ч. 25 м.
    Вид битрейта : Постоянный
    Битрейт : 384 Кбит/сек
    Каналы : 6 каналов
    Расположение каналов : Front: L C R, Side: L R, LFE
    Частота : 48,0 КГц
    Битовая глубина : 16 бит
    Метод сжатия : С потерями
    Размер потока : 235 Мбайт (11%)
    Заголовок : Английский
    Язык : English
    Default : Нет
    Forced : Да
    Текст #1
    Идентификатор : 4
    Формат : UTF-8
    Идентификатор кодека : S_TEXT/UTF8
    Идентификатор кодека/Информация : UTF-8 Plain Text
    Заголовок : Русские
    Язык : Russian
    Default : Нет
    Forced : Да
    Текст #2
    Идентификатор : 5
    Формат : UTF-8
    Идентификатор кодека : S_TEXT/UTF8
    Идентификатор кодека/Информация : UTF-8 Plain Text
    Заголовок : Английские
    Язык : English
    Default : Нет
    Forced : Да
    Меню
    00:00:00.000 : en:00:00:00.000
    00:09:42.582 : en:00:09:42.582
    00:20:09.041 : en:00:20:09.041
    00:30:22.529 : en:00:30:22.529
    00:39:16.771 : en:00:39:16.771
    00:48:56.308 : en:00:48:56.308
    00:59:52.422 : en:00:59:52.422
    01:09:45.431 : en:01:09:45.431
    01:20:52.181 : en:01:20:52.181

    Скриншот c названием фильма

    Скриншоты

    Возраст

    16+ - зрителям, достигшим 16 лет

    Рейтинг МРАА

    R - лицам до 17 лет обязательно присутствие взрослого
    Скачать .torrent

    Скачать торрент-файл бесплатно и на максимальной скорости!

    Как скачивать? · Что такое торрент? · Рейтинг и ограничения

    !ВНИМАНИЕ!
    Сайт не распространяет и не хранит электронные версии произведений, а занимается лишь лишь предоставлением доступа к создаваемому пользователями каталогу ссылок на торрент-файлы, которые содержат только списки хеш-сумм, убедительная просьба с жалобами обращаться напрямую к пользователю. Файлы для обмена на трекере предоставлены пользователями сайта, и администрация не несёт ответственности за их содержание. Просьба не заливать файлы, защищенные авторскими правами, а также файлы нелегального содержания!


    _________________
    [Профиль] [ЛС]
    Показать сообщения:    
    Ответить на тему

    Текущее время: Сегодня, в 20:56

    Часовой пояс: GMT + 2



    Вы не можете начинать темы
    Вы не можете отвечать на сообщения
    Вы не можете редактировать свои сообщения
    Вы не можете удалять свои сообщения
    Вы не можете голосовать в опросах
    Вы не можете прикреплять файлы к сообщениям
    Вы не можете скачивать файлы