BitTorrentTracker PerecTracker.org
BitTorrentTracker PerecTracker.org
    
Регистрация  ·  Вход
 
 · 
Забыли пароль?

  • Исходный код / Source Code (Дункан Джонс / Duncan Jones) [2011, США, Канада, фантастика, боевик, триллер, BDRip-AVC] Dub + Sub (Rus, Eng) + Original Eng

    Ответить на тему
     
    Автор Сообщение

    Light

    Создавать темы 05-Май-2015 20:05

           

    [Цитировать]

    Исходный код / Source Code
    Страна: США, Канада
    Жанр: фантастика, боевик, триллер
    Год выпуска: 2011
    Продолжительность: 01:32:55
    Перевод: Профессиональный (дублированный)
    Cубтитры: Русские (Voronine, Voronine SDH), Английские (полные + SDH)
    Оригинальная аудиодорожка: Английский--Режиссер: Дункан Джонс / Duncan Jones--В ролях: Джейк Джилленхол, Мишель Монахэн, Вера Фармига, Джеффри Райт, Расселл Питерс, Джеймс А. Вудс, Майкл Арден, Кас Анвар, Джо Кобден, Брент Скэгфорд, Крэйг Томас, Гордон Мастен, Сьюзэн Бэйн, Паула Жан Хиксон, Линкольн Уорд, Кайл Гейтхаус, Альберт Кван, Энн Дэй-Джонс, Клариса Бирн, Мэтт Холлэнд, Фредерик Де Гранпре, Скотт Бакула, Лаура Этвуд, Райнальд Лапьер, Сэмюэл Медоуз...--Описание: Солдат по имени Коултер мистическим образом оказывается в теле неизвестного мужчины, погибшего в железнодорожной катастрофе. Коултер вынужден переживать чужую смерть снова и снова до тех пор, пока не поймет, кто — зачинщик катастрофы.--Доп. информация: Kinopoisk | IMDB | Sample--Качество видео: BDRip-AVC
    Формат видео: MKV
    Видео: MPEG4/AVC, 1088x614 (16:9), 3593 Kbps, 23.976 fps, 0.224 bit/pixel.
    Аудио 1: AC3 Dolby Digital, 3/2 (L,C,R,l,r) + LFE ch, 48.0 KHz, 448 Kbps.
    Аудио 2: AC3 Dolby Digital, 3/2 (L,C,R,l,r) + LFE ch, 48.0 KHz, 448 Kbps.
    Формат субтитров: softsub (SRT)

    MediaInfo

    General
    Unique ID : 237553516984659942759569224128782395753 (0xB2B724A726B9134192674F76F6E3E969)
    Complete name : Исходный код (2011).mkv
    Format : Matroska
    Format version : Version 4 / Version 2
    File size : 2.92 GiB
    Duration : 1h 32mn
    Overall bit rate : 4 492 Kbps
    Movie name : Исходный код / Source Code (2011)
    Encoded date : UTC 2015-05-04 09:51:24
    Writing application : mkvmerge v7.8.0 ('River Man') 64bit built on Mar 27 2015 16:31:37
    Writing library : libebml v1.3.1 + libmatroska v1.4.2
    Attachements : cover.jpg
    DURATION : 01:25:42.449000000
    NUMBER_OF_FRAMES : 1154
    NUMBER_OF_BYTES : 64578
    _STATISTICS_WRITING_APP : mkvmerge v7.8.0 ('River Man') 64bit built on Mar 27 2015 16:31:37
    _STATISTICS_WRITING_DATE_UT : 2015-05-04 09:51:24
    _STATISTICS_TAGS : BPS DURATION NUMBER_OF_FRAMES NUMBER_OF_BYTES
    Video
    ID : 1
    Format : AVC
    Format/Info : Advanced Video Codec
    Format profile : High@L4.1
    Format settings, CABAC : Yes
    Format settings, ReFrames : 11 frames
    Codec ID : V_MPEG4/ISO/AVC
    Duration : 1h 32mn
    Bit rate : 3 593 Kbps
    Width : 1 088 pixels
    Height : 614 pixels
    Display aspect ratio : 16:9
    Frame rate mode : Constant
    Frame rate : 23.976 fps
    Color space : YUV
    Chroma subsampling : 4:2:0
    Bit depth : 8 bits
    Scan type : Progressive
    Bits/(Pixel*Frame) : 0.224
    Stream size : 2.28 GiB (78%)
    Title : Source Code
    Writing library : x264 core 130 r2273 b3065e6
    Encoding settings : cabac=1 / ref=11 / deblock=1:-3:-3 / analyse=0x3:0x133 / me=umh / subme=11 / psy=1 / psy_rd=1.04:0.00 / mixed_ref=1 / me_range=48 / chroma_me=1 / trellis=2 / 8x8dct=1 / cqm=0 / deadzone=21,11 / fast_pskip=0 / chroma_qp_offset=-2 / threads=9 / lookahead_threads=2 / sliced_threads=0 / nr=0 / decimate=0 / interlaced=0 / bluray_compat=0 / constrained_intra=0 / bframes=12 / b_pyramid=2 / b_adapt=2 / b_bias=0 / direct=3 / weightb=1 / open_gop=0 / weightp=2 / keyint=250 / keyint_min=23 / scenecut=40 / intra_refresh=0 / rc_lookahead=60 / rc=2pass / mbtree=0 / bitrate=3593 / ratetol=1.0 / qcomp=0.70 / qpmin=0 / qpmax=69 / qpstep=4 / cplxblur=20.0 / qblur=0.5 / vbv_maxrate=20000 / vbv_bufsize=25000 / nal_hrd=none / ip_ratio=1.35 / pb_ratio=1.25 / aq=1:0.90
    Language : English
    Default : Yes
    Forced : No
    DURATION : 01:32:55.579000000
    NUMBER_OF_FRAMES : 133680
    NUMBER_OF_BYTES : 2503945742
    _STATISTICS_WRITING_APP : mkvmerge v7.8.0 ('River Man') 64bit built on Mar 27 2015 16:31:37
    _STATISTICS_WRITING_DATE_UT : 2015-05-04 09:51:24
    _STATISTICS_TAGS : BPS DURATION NUMBER_OF_FRAMES NUMBER_OF_BYTES
    Audio #1
    ID : 2
    Format : AC-3
    Format/Info : Audio Coding 3
    Mode extension : CM (complete main)
    Format settings, Endianness : Big
    Codec ID : A_AC3
    Duration : 1h 32mn
    Bit rate mode : Constant
    Bit rate : 448 Kbps
    Channel(s) : 6 channels
    Channel positions : Front: L C R, Side: L R, LFE
    Sampling rate : 48.0 KHz
    Bit depth : 16 bits
    Compression mode : Lossy
    Stream size : 298 MiB (10%)
    Title : Дубляж
    Language : Russian
    Default : Yes
    Forced : No
    Audio #2
    ID : 3
    Format : AC-3
    Format/Info : Audio Coding 3
    Mode extension : CM (complete main)
    Format settings, Endianness : Big
    Codec ID : A_AC3
    Duration : 1h 32mn
    Bit rate mode : Constant
    Bit rate : 448 Kbps
    Channel(s) : 6 channels
    Channel positions : Front: L C R, Side: L R, LFE
    Sampling rate : 48.0 KHz
    Bit depth : 16 bits
    Compression mode : Lossy
    Stream size : 298 MiB (10%)
    Title : Original
    Language : English
    Default : No
    Forced : No
    Text #1
    ID : 4
    Format : UTF-8
    Codec ID : S_TEXT/UTF8
    Codec ID/Info : UTF-8 Plain Text
    Title : Voronine
    Language : Russian
    Default : No
    Forced : No
    Text #2
    ID : 5
    Format : UTF-8
    Codec ID : S_TEXT/UTF8
    Codec ID/Info : UTF-8 Plain Text
    Title : SDH.Voronine
    Language : Russian
    Default : No
    Forced : No
    Text #3
    ID : 6
    Format : UTF-8
    Codec ID : S_TEXT/UTF8
    Codec ID/Info : UTF-8 Plain Text
    Language : English
    Default : No
    Forced : No
    Text #4
    ID : 7
    Format : UTF-8
    Codec ID : S_TEXT/UTF8
    Codec ID/Info : UTF-8 Plain Text
    Title : SDH
    Language : English
    Default : No
    Forced : No
    Menu
    00:00:00.000 : en:(01)00:00:00:000
    00:01:57.992 : en:(02)00:01:57:992
    00:09:47.962 : en:(03)00:09:47:962
    00:18:33.153 : en:(04)00:18:33:153
    00:28:21.908 : en:(05)00:28:21:908
    00:41:17.600 : en:(06)00:41:17:600
    00:54:20.215 : en:(07)00:54:20:215
    01:02:54.479 : en:(08)01:02:54:479
    01:10:21.008 : en:(09)01:10:21:008

    Скриншоты

    Скачать .torrent

    Скачать торрент-файл бесплатно и на максимальной скорости!

    Как скачивать? · Что такое торрент? · Рейтинг и ограничения

    !ВНИМАНИЕ!
    Сайт не распространяет и не хранит электронные версии произведений, а занимается лишь лишь предоставлением доступа к создаваемому пользователями каталогу ссылок на торрент-файлы, которые содержат только списки хеш-сумм, убедительная просьба с жалобами обращаться напрямую к пользователю. Файлы для обмена на трекере предоставлены пользователями сайта, и администрация не несёт ответственности за их содержание. Просьба не заливать файлы, защищенные авторскими правами, а также файлы нелегального содержания!


    _________________
    [Профиль] [ЛС]
    Показать сообщения:    
    Ответить на тему

    Текущее время: Сегодня, в 14:56

    Часовой пояс: GMT + 2



    Вы не можете начинать темы
    Вы не можете отвечать на сообщения
    Вы не можете редактировать свои сообщения
    Вы не можете удалять свои сообщения
    Вы не можете голосовать в опросах
    Вы не можете прикреплять файлы к сообщениям
    Вы не можете скачивать файлы