BitTorrentTracker PerecTracker.org
BitTorrentTracker PerecTracker.org
    
Регистрация  ·  Вход
 
 · 
Забыли пароль?

  • Золотой Гусь / Die Goldene Gans (Карстен Фибелер / Carsten Fiebeler) [2013, Германия, сказка, детский, семейный, HDTVRip] DVO (ТВЦ) + Original Ger

    Ответить на тему
     
    Автор Сообщение

    Light

    Создавать темы 05-Май-2015 20:05

           

    [Цитировать]

    Золотой Гусь / Die Goldene Gans
    Страна: Германия
    Жанр: сказка, детский, семейный
    Год выпуска: 2013
    Продолжительность: 01:27:19
    Перевод: Профессиональный (двухголосый закадровый) компания "Игмар"
    Cубтитры: нет
    Оригинальная аудиодорожка: немецкий
    Режиссер: Карстен Фибелер / Carsten Fiebeler
    В ролях: Джереми Мокридж, Йелла Хаасе, Инго Науйокс, Ульрике Крумбигель, Арндт Шверинг-Зонрай, Роланд Шрегльманн, Анна Бёттхер, Тереза Вайссбах, Тиль Флориан Байербах, Хильмар Эйхогерн, Торстен Мертен, Эдин Хасанович, Адольфо Ассер
    Описание: Экранизация одноименной сказки братьев Гримм. Однажды простачок Тиль спасает от голода бедного старика и в благодарность получает от него золотого гуся. Но деньги и имущество не представляют для Тиля никакой ценности. При помощи этого волшебного подарка юноша хочет сделать печальную принцессу счастливой. Но путь в королевство долгий и непростой, так как жадные люди хотят отнять необычную птицу...
    Сэмпл: http://multi-up.com/1046897
    Качество видео: HDTVRip
    Формат видео: AVI
    Видео: MPEG4, XviD, 720x400 (16/9), 25.000 fps, 1 982 Kbps (0.275 bit/pixel)
    Аудио: AC-3, 48.0 KHz, 2 ch, 192 Kbps, CBR - русский
    Аудио 2: AC-3, 48.0 KHz, 2 ch, 192 Kbps, CBR - немецкий

    MediaInfo

    Общее
    Полное имя : K:\Золотой Гусь.avi
    Формат : AVI
    Формат/Информация : Audio Video Interleave
    Размер файла : 1,45 Гбайт
    Продолжительность : 1 ч. 27 м.
    Общий поток : 2381 Кбит/сек
    Название фильма : Золотой Гусь / Die Goldene Gans (2013)
    Программа кодирования : VirtualDubMod 1.5.10.2 (build 2540/release)
    Библиотека кодирования : VirtualDubMod build 2540/release
    Правообладатель : miha2154
    Видео
    Идентификатор : 0
    Формат : MPEG-4 Visual
    Профиль формата : Advanced Simple@L5
    Параметр BVOP формата : 1
    Параметр QPel формата : Нет
    Параметр GMC формата : Без точки перехода
    Параметр матрицы формата : Выборочная
    Идентификатор кодека : XVID
    Идентификатор кодека/Подсказка : XviD
    Продолжительность : 1 ч. 27 м.
    Битрейт : 1982 Кбит/сек
    Ширина : 720 пикселей
    Высота : 400 пикселей
    Соотношение сторон : 16:9
    Частота кадров : 25,000 кадров/сек
    Цветовое пространство : YUV
    Субдискретизация насыщенности : 4:2:0
    Битовая глубина : 8 бит
    Тип развёртки : Прогрессивная
    Метод сжатия : С потерями
    Бит/(Пиксели*Кадры) : 0.275
    Размер потока : 1,21 Гбайт (83%)
    Библиотека кодирования : XviD 65
    Аудио #1
    Идентификатор : 1
    Формат : AC-3
    Формат/Информация : Audio Coding 3
    Расширение режима : CM (complete main)
    Параметр Endianness формата : Big
    Идентификатор кодека : 2000
    Продолжительность : 1 ч. 27 м.
    Вид битрейта : Постоянный
    Битрейт : 192 Кбит/сек
    Каналы : 2 канала
    Расположение каналов : Front: L R
    Частота : 48,0 КГц
    Битовая глубина : 16 бит
    Метод сжатия : С потерями
    Размер потока : 120 Мбайт (8%)
    Выравнивание : Разделение по промежуткам
    Продолжительность промежутка : 40 мс. (1,00 видеокадр)
    Время предзагрузки промежутка : 500 мс.
    Заголовок : Профессиональный (двухголосый, закадровый) ТВЦ
    Аудио #2
    Идентификатор : 2
    Формат : AC-3
    Формат/Информация : Audio Coding 3
    Расширение режима : CM (complete main)
    Параметр Endianness формата : Big
    Идентификатор кодека : 2000
    Продолжительность : 1 ч. 27 м.
    Вид битрейта : Постоянный
    Битрейт : 192 Кбит/сек
    Каналы : 2 канала
    Расположение каналов : Front: L R
    Частота : 48,0 КГц
    Битовая глубина : 16 бит
    Метод сжатия : С потерями
    Размер потока : 120 Мбайт (8%)
    Выравнивание : Разделение по промежуткам
    Продолжительность промежутка : 40 мс. (1,00 видеокадр)
    Время предзагрузки промежутка : 500 мс.
    Заголовок : Немецкий

    Скриншоты



    Скачать .torrent

    Скачать торрент-файл бесплатно и на максимальной скорости!

    Как скачивать? · Что такое торрент? · Рейтинг и ограничения

    !ВНИМАНИЕ!
    Сайт не распространяет и не хранит электронные версии произведений, а занимается лишь лишь предоставлением доступа к создаваемому пользователями каталогу ссылок на торрент-файлы, которые содержат только списки хеш-сумм, убедительная просьба с жалобами обращаться напрямую к пользователю. Файлы для обмена на трекере предоставлены пользователями сайта, и администрация не несёт ответственности за их содержание. Просьба не заливать файлы, защищенные авторскими правами, а также файлы нелегального содержания!


    _________________
    [Профиль] [ЛС]
    Показать сообщения:    
    Ответить на тему

    Текущее время: Сегодня, в 12:26

    Часовой пояс: GMT + 2



    Вы не можете начинать темы
    Вы не можете отвечать на сообщения
    Вы не можете редактировать свои сообщения
    Вы не можете удалять свои сообщения
    Вы не можете голосовать в опросах
    Вы не можете прикреплять файлы к сообщениям
    Вы не можете скачивать файлы