BitTorrentTracker PerecTracker.org
BitTorrentTracker PerecTracker.org
    
Регистрация  ·  Вход
 
 · 
Забыли пароль?

  • Поездка Ханны / Hannas Reise / Hamasa shel Hanna (Юлия фон Хайнц / Julia von Heinz) [2013, Германия, Израиль, мелодрама, комедия, DVDRip] Sub Rus + Original Heb

    Ответить на тему
     
    Автор Сообщение

    Light

    Создавать темы 05-Май-2015 20:05

           

    [Цитировать]

    Поездка Ханны / Hannas Reise / Hamasa shel Hanna
    Страна: Германия, Израиль
    Жанр: мелодрама, комедия
    Год выпуска: 2013
    Продолжительность: 01:35:27
    Перевод: Субтитры
    Cубтитры: русские (softsub, ASS, в контейнере MKV), немецкие (hardsub)
    Оригинальная аудиодорожка: иврит, немецкий, английский
    Режиссер: Юлия фон Хайнц / Julia von Heinz
    В ролях: Каролине Шух, Дорон Амит, Макс Мауфф, Лоре Рихтер, Тристан Пюттер, Леа Кениг, Сюзанна фон Борсоди, Андреас Борхердинг, Клаудия-София Йелинек
    Описание: Ханна, берлинская студентка, заканчивая учёбу, пытается устроиться на престижную работу. Но, работодатель требует документального подтверждения участия девушки в социальных программах. Ее мать, руководитель благотворительной организации, вовсе не собирается обеспечивать дочь фиктивными справками. Чтобы всё-таки получить необходимое подтверждение, Ханна едет в Израиль для работы в качестве волонтёра с инвалидами и престарелыми. Там она узнаёт о том, что её дед в Германии перед войной завладел домом и имуществом репрессированного еврея. Эта новость, и встреча с Итаем полностью меняют жизнь Ханны.
    Доп. информация: Награда кинофестиваля "Турция-Германия" в Нюрнберге (2014): "Лучший актёр" - Дорон Амит.
    ,
    Сэмпл: http://www.mediafire.com/watch/9z84xr224qxdziz/Samp...s_Reise_2013.mkv
    Качество видео: DVDRip
    Формат видео: MKV
    Видео: AVC 720х304 2,35:1 25 кадров/сек 1026 Кбит/сек
    Аудио: AC-3 48 КГц 6 каналов 384 Кбит/сек
    Формат субтитров: softsub (ASS)
    Доп. информация о субтитрах: в контейнере MKV

    Образец субтитров

    Dialogue: 0,0:03:58.40,0:04:00.87,Default,,0,0,0,,И как я должна сделать это?
    Dialogue: 0,0:04:00.88,0:04:05.21,Default,,0,0,0,,Я могу взять 3 листа и написать сама.
    Dialogue: 0,0:04:05.25,0:04:08.61,Default,,0,0,0,,И сама достанешь справку,\Nподтверждающую, что ты работала в Израиле?
    Dialogue: 0,0:04:08.65,0:04:11.56,Default,,0,0,0,,Ты уже знаешь иврит?
    Dialogue: 0,0:04:11.59,0:04:15.02,Default,,0,0,0,,Не думаю, что для вас проблематично\Nуладить это.
    Dialogue: 0,0:04:15.05,0:04:18.28,Default,,0,0,0,,Ведь вы - во главе организации.
    Dialogue: 0,0:04:23.18,0:04:24.48,Default,,0,0,0,,В чём проблема?
    Dialogue: 0,0:04:24.52,0:04:27.49,Default,,0,0,0,,Полгода не слышала от тебя ни слова,
    Dialogue: 0,0:04:27.52,0:04:30.26,Default,,0,0,0,,и вдруг ты приходишь сюда
    Dialogue: 0,0:04:30.30,0:04:33.84,Default,,0,0,0,,и просишь меня сфальсифицировать тебе справку.
    Dialogue: 0,0:04:35.95,0:04:38.09,Default,,0,0,0,,Это - всего лишь письмо.
    Dialogue: 0,0:04:38.13,0:04:41.39,Default,,0,0,0,,Ты, вообще, представляешь,\Nсколько людей хотят работать с нами?
    Dialogue: 0,0:04:41.43,0:04:44.50,Default,,0,0,0,,Ты никогда не хотела вникать\Nв немецкую историю.
    Dialogue: 0,0:04:44.54,0:04:48.10,Default,,0,0,0,,Не лепи сюда Холокост.
    Dialogue: 0,0:04:48.78,0:04:50.81,Default,,0,0,0,,Дитмар?
    Dialogue: 0,0:04:50.99,0:04:54.72,Default,,0,0,0,,Ты можешь организовать Ханне место?
    Dialogue: 0,0:04:54.76,0:04:57.97,Default,,0,0,0,,Есть работа в Тель-Авиве,\Nи старая госпожа Нуссбаум в Иерусалиме.
    Dialogue: 0,0:04:58.00,0:05:00.01,Default,,0,0,0,,Не может быть, вы шутите.
    Dialogue: 0,0:05:00.04,0:05:02.00,Default,,0,0,0,,Нет.
    Dialogue: 0,0:05:02.04,0:05:03.79,Default,,0,0,0,,Это то, что называется протекцией.
    Dialogue: 0,0:05:03.83,0:05:06.02,Default,,0,0,0,,Спасибо, Дитмар, ты нам очень помог.
    Dialogue: 0,0:05:06.05,0:05:08.42,Default,,0,0,0,,Я надеюсь, что это как-то поможет тебе,
    Dialogue: 0,0:05:08.45,0:05:10.74,Default,,0,0,0,,и ты научишься ценить.
    Dialogue: 0,0:05:14.18,0:05:16.39,Default,,0,0,0,,Ты не можешь хоть один раз\Nвести себя как настоящая мать?!
    Dialogue: 0,0:05:16.42,0:05:18.66,Default,,0,0,0,,Ты помогаешь всем, кроме своей дочери,
    Dialogue: 0,0:05:18.70,0:05:23.12,Default,,0,0,0,,потому что на это ты не получаешь денег\Nот своих праведных спонсоров.

    MediaInfo

    Общее
    Уникальный идентификатор : 239504184287713302271173669371563375637 (0xB42ED3F9F15BEA65893DA915E5027C15)
    Полное имя : Hannas Reise 2013.mkv
    Формат : Matroska
    Версия формата : Version 2
    Размер файла : 982 Мбайт
    Продолжительность : 1 ч. 35 м.
    Общий поток : 1439 Кбит/сек
    Дата кодирования : UTC 2015-05-03 17:58:50
    Программа кодирования : mkvmerge v5.8.0 ('No Sleep / Pillow') built on Sep 2 2012 15:37:04
    Библиотека кодирования : libebml v1.2.3 + libmatroska v1.3.0
    Видео
    Идентификатор : 1
    Формат : AVC
    Формат/Информация : Advanced Video Codec
    Профиль формата : High@L3.1
    Параметр CABAC формата : Да
    Параметр ReFrames формата : 5 кадров
    Режим смешивания : Header stripping
    Идентификатор кодека : V_MPEG4/ISO/AVC
    Продолжительность : 1 ч. 35 м.
    Битрейт : 1026 Кбит/сек
    Ширина : 720 пикселей
    Высота : 304 пикселя
    Соотношение сторон : 2,35:1
    Режим частоты кадров : Постоянный
    Частота кадров : 25,000 кадров/сек
    Цветовое пространство : YUV
    Субдискретизация насыщенности : 4:2:0
    Битовая глубина : 8 бит
    Тип развёртки : Прогрессивная
    Бит/(Пиксели*Кадры) : 0.187
    Размер потока : 701 Мбайт (71%)
    Default : Да
    Forced : Нет
    Аудио
    Идентификатор : 2
    Формат : AC-3
    Формат/Информация : Audio Coding 3
    Расширение режима : CM (complete main)
    Параметр Endianness формата : Big
    Режим смешивания : Header stripping
    Идентификатор кодека : A_AC3
    Продолжительность : 1 ч. 35 м.
    Вид битрейта : Постоянный
    Битрейт : 384 Кбит/сек
    Каналы : 6 каналов
    Расположение каналов : Front: L C R, Side: L R, LFE
    Частота : 48,0 КГц
    Битовая глубина : 16 бит
    Метод сжатия : С потерями
    Задержка видео : 16 мс.
    Размер потока : 262 Мбайт (27%)
    Язык : German
    Default : Да
    Forced : Нет
    Текст
    Идентификатор : 3
    Формат : ASS
    Идентификатор кодека : S_TEXT/ASS
    Идентификатор кодека/Информация : Advanced Sub Station Alpha
    Метод сжатия : Без потерь
    Default : Да
    Forced : Нет

    Скриншот c названием фильма

    Скриншоты

    Скачать .torrent

    Скачать торрент-файл бесплатно и на максимальной скорости!

    Как скачивать? · Что такое торрент? · Рейтинг и ограничения

    !ВНИМАНИЕ!
    Сайт не распространяет и не хранит электронные версии произведений, а занимается лишь лишь предоставлением доступа к создаваемому пользователями каталогу ссылок на торрент-файлы, которые содержат только списки хеш-сумм, убедительная просьба с жалобами обращаться напрямую к пользователю. Файлы для обмена на трекере предоставлены пользователями сайта, и администрация не несёт ответственности за их содержание. Просьба не заливать файлы, защищенные авторскими правами, а также файлы нелегального содержания!


    _________________
    [Профиль] [ЛС]
    Показать сообщения:    
    Ответить на тему

    Текущее время: Сегодня, в 09:49

    Часовой пояс: GMT + 2



    Вы не можете начинать темы
    Вы не можете отвечать на сообщения
    Вы не можете редактировать свои сообщения
    Вы не можете удалять свои сообщения
    Вы не можете голосовать в опросах
    Вы не можете прикреплять файлы к сообщениям
    Вы не можете скачивать файлы