BitTorrentTracker PerecTracker.org
BitTorrentTracker PerecTracker.org
    
Регистрация  ·  Вход
 
 · 
Забыли пароль?

  • Тутанхамончик: Битва фараонов / Тутенштейн: Битва фараонов / Tutenstein: Clash of the Pharaohs (Чарльз Гросвенор / Charles Grosvenor) [2008, США, Мультфильм, семейный, DVDRip] MVO

    Ответить на тему
     
    Автор Сообщение

    rechyn

    Создавать темы 05-Май-2015 20:05

           

    [Цитировать]

    Тутанхамончик: Битва фараонов / Tutenstein: Clash of the Pharaohs
    Год выпуска: 2008
    Страна: США
    Жанр: мультфильм
    Продолжительность: 01:10:32
    Перевод: Профессиональный (многоголосый, закадровый)
    Русские субтитры: нет
    Режиссер: Чарльз Гросвенор / Charles Grosvenor
    Описание: Как чудесно можно изменить свою жизнь, если твой лучший друг — могущественный волшебник из прошлого! Главная героиня приключенческого мультика «Тутенштейн» — обычная школьница, которая по вечерам подрабатывает, убирая огромные и мрачные залы музея древнего мира. Протирая пыль в зале египтологии, золушка из музея случайно совершает чудо — она оживляет мумию юного принца Египта.
    Вернувшийся к жизни Тутенштейн — обычный тинэйджер, только очень несовременный, избалованный из-за царского происхождения и умеющий колдовать. Тутенштейн с интересом узнаёт с помощью своей современной подружки обо всех реалиях нашей цивилизации, но с ностальгией вспоминает о своей «фараонской» прошлой жизни — в роскоши, среди многочисленных слуг и безо всяких забот. Несмотря на все предостережения, Тутенштейн не удержится и предпримет попытку вернуть всё человечество в эпоху Древнего мира! Ох и хлопотное это дело — дружить с маленьким магом! Сколько еще сюрпризов преподнесёт Тутенштейн своей спасительнице? Удастся ли ей сокрыть факт воскрешения неугомонной мумии от директора музея и вездесущих журналистов?- | Совместный релиз:
    и -Формат: DVDRip | (Sample)
    Качество: AVI
    Видео: 640x480 (1.33:1), 25 fps, XviD ~1338 kbps, 0.17 bit/pixel
    Аудио: 48.0 KHz, MP3, 2 ch, 128 Kbps, Русский
    Субтитры: отсутствуют

    MediaInfo

    GeneralComplete name : Tutanhamonchik_2008_745_Olu6ka.aviFormat : AVIFormat/Info : Audio Video InterleaveFile size : 745 MiBDuration : 1h 10mnOverall bit rate : 1 476 KbpsWriting application : VirtualDubModRus 1.5.10.2 (build 2542/release)Writing library : VirtualDubMod build 2542/release
    VideoID : 0Format : MPEG-4 VisualFormat profile : Advanced Simple@L5Format settings, BVOP : 1Format settings, QPel : NoFormat settings, GMC : No warppointsFormat settings, Matrix : CustomCodec ID : XVIDCodec ID/Hint : XviDDuration : 1h 10mnBit rate : 1 339 KbpsWidth : 640 pixelsHeight : 480 pixelsDisplay aspect ratio : 4:3Frame rate : 25.000 fpsColor space : YUVChroma subsampling : 4:2:0Bit depth : 8 bitsScan type : ProgressiveCompression mode : LossyBits/(Pixel*Frame) : 0.174Stream size : 676 MiB (91%)Writing library : XviD 73
    AudioID : 1Format : MPEG AudioFormat version : Version 1Format profile : Layer 3Mode : Joint stereoMode extension : MS StereoCodec ID : 55Codec ID/Hint : MP3Duration : 1h 10mnBit rate mode : ConstantBit rate : 128 KbpsChannel count : 2 channelsSampling rate : 48.0 KHzCompression mode : LossyStream size : 64.6 MiB (9%)Alignment : Split accross interleavesInterleave, duration : 40 ms (1.00 video frame)Interleave, preload duration : 500 ms

    Скриншоты

    Сравнение


    http://perectracker.org/viewtopic.php?t=3440270
    http://screenshotcomparison.com/comparison/125201
    вшитая реклама стороннего сайта + неудачный деинтерлейс
    Спасибо noon за DVD5 и shurik-work за хранение исходников!
    Скачать .torrent

    Скачать торрент-файл бесплатно и на максимальной скорости!

    Как скачивать? · Что такое торрент? · Рейтинг и ограничения

    !ВНИМАНИЕ!
    Сайт не распространяет и не хранит электронные версии произведений, а занимается лишь лишь предоставлением доступа к создаваемому пользователями каталогу ссылок на торрент-файлы, которые содержат только списки хеш-сумм, убедительная просьба с жалобами обращаться напрямую к пользователю. Файлы для обмена на трекере предоставлены пользователями сайта, и администрация не несёт ответственности за их содержание. Просьба не заливать файлы, защищенные авторскими правами, а также файлы нелегального содержания!


    _________________
    [Профиль] [ЛС]
    Показать сообщения:    
    Ответить на тему

    Текущее время: Сегодня, в 03:04

    Часовой пояс: GMT + 2



    Вы не можете начинать темы
    Вы не можете отвечать на сообщения
    Вы не можете редактировать свои сообщения
    Вы не можете удалять свои сообщения
    Вы не можете голосовать в опросах
    Вы не можете прикреплять файлы к сообщениям
    Вы не можете скачивать файлы