BitTorrentTracker PerecTracker.org
BitTorrentTracker PerecTracker.org
    
Регистрация  ·  Вход
 
 · 
Забыли пароль?

  • Сокровища рыцарей. Тайна Милюзины / Schatzritter (Лаура Шредер / Laura Schroeder) [2012, Люксембург, Германия, Приключения, семейный, SATRip] Dub (по заказу ЗАО «Первый канал. Всемирная сеть»)

    Ответить на тему
     
    Автор Сообщение

    Light

    Создавать темы 03-Май-2015 21:12

           

    [Цитировать]

    Сокровища рыцарей. Тайна Милюзины / Schatzritter
    Страна: Люксембург, Германия, Lucil Film, NEOS Film, Bavaria Film Partners
    Жанр: Приключения, семейный
    Год выпуска: 2012
    Продолжительность: 01:31:43
    Перевод: Профессиональный (дублированный) по заказу ЗАО «Первый канал. Всемирная сеть»
    Cубтитры: нет
    Оригинальная аудиодорожка: нет
    Режиссер: Лаура Шредер / Laura Schroeder
    В ролях: Люк Фэйт, Клеменс Шик, Вики Крипс, Антон Глас, Тьерри Кооб, Лана Вельтер, Александра Нэльдел
    Описание: Поиски легендарного сокровища превращают лето Джеффа в большое захватывающее приключение. Мама 11-летнего Джеффа загадочно умерла семь лет назад, и мальчик живет с отцом в палаточном лагере рядом с руинами средневекового замка, который принадлежал его семье. Однажды отец объявляет сыну, что замок придется продать. Джефф приходит в уныние, ведь руины замка — его любимое место, которое хранит воспоминания о маме. К счастью, хотя бы в школу летом ходить не нужно, и скоро приедут друзья Джеффа, чтобы провести с ним каникулы. Собравшись вместе, друзья узнают о древних сокровищах русалки Милюзины и решают отыскать их. Легенда гласит, что Милюзины была проклята, и даже сейчас ее можно увидеть в местных реках. Если юные сыщики найдут сокровища, они смогут освободить русалку от проклятья и помочь Джеффу сохранить замок.
    Сэмпл: http://sendfile.su/1114327
    Качество видео: SATRip
    Формат видео: AVI
    Видео: Xvid 720x400 25fps 1 850 Kbps
    Аудио: AC3 48000Hz stereo 192kbps

    MediaInfo

    D:\DOCUM\Сокровища рыцарей. Тайна Милюзины.2012.XviD.SATRip.avi
    General
    Complete name : D:\DOCUM\Сокровища рыцарей. Тайна Милюзины.2012.XviD.SATRip.avi
    Format : AVI
    Format/Info : Audio Video Interleave
    File size : 1.31 GiB
    Duration : 1h 31mn
    Overall bit rate : 2 051 Kbps
    Movie name : Schatzritter
    Director : SATRip by Thunder
    Genre : Adventure
    Writing application : VirtualDubMod 1.5.10.3 | www.virtualdub-fr.org || (build 2550/release)
    Video #0
    ID : 0
    Format : MPEG-4 Visual
    Format profile : Advanced Simple@L5
    Format settings, BVOP : Yes
    Format settings, QPel : No
    Format settings, GMC : No warppoints
    Format settings, Matrix : Default (H.263)
    Codec ID : XVID
    Codec ID/Hint : XviD
    Duration : 1h 31mn
    Bit rate : 1 850 Kbps
    Width : 720 pixels
    Height : 400 pixels
    Display aspect ratio : 16:9
    Frame rate : 25.000 fps
    Color space : YUV
    Chroma subsampling : 4:2:0
    Bit depth : 8 bits
    Scan type : Progressive
    Bits/(Pixel*Frame) : 0.257
    Stream size : 1.19 GiB (90%)
    Writing library : XviD 1.2.1 (UTC 2008-12-04)
    Audio #1
    ID : 1
    Format : AC-3
    Format/Info : Audio Coding 3
    Mode extension : CM (complete main)
    Codec ID : 2000
    Duration : 1h 31mn
    Bit rate mode : Constant
    Bit rate : 192 Kbps
    Channel(s) : 2 channels
    Channel positions : Front: L R
    Sampling rate : 48.0 KHz
    Bit depth : 16 bits
    Stream size : 126 MiB (9%)
    Alignment : Split accross interleaves
    Interleave, duration : 40 ms (1.00 video frame)
    Interleave, preload duration : 500 ms

    Скриншоты


    Скачать .torrent

    Скачать торрент-файл бесплатно и на максимальной скорости!

    Как скачивать? · Что такое торрент? · Рейтинг и ограничения

    !ВНИМАНИЕ!
    Сайт не распространяет и не хранит электронные версии произведений, а занимается лишь лишь предоставлением доступа к создаваемому пользователями каталогу ссылок на торрент-файлы, которые содержат только списки хеш-сумм, убедительная просьба с жалобами обращаться напрямую к пользователю. Файлы для обмена на трекере предоставлены пользователями сайта, и администрация не несёт ответственности за их содержание. Просьба не заливать файлы, защищенные авторскими правами, а также файлы нелегального содержания!


    _________________
    [Профиль] [ЛС]
    Показать сообщения:    
    Ответить на тему

    Текущее время: Сегодня, в 20:24

    Часовой пояс: GMT + 2



    Вы не можете начинать темы
    Вы не можете отвечать на сообщения
    Вы не можете редактировать свои сообщения
    Вы не можете удалять свои сообщения
    Вы не можете голосовать в опросах
    Вы не можете прикреплять файлы к сообщениям
    Вы не можете скачивать файлы