BitTorrentTracker PerecTracker.org
BitTorrentTracker PerecTracker.org
    
Регистрация  ·  Вход
 
 · 
Забыли пароль?

  • Похищенная / A Lonely Place to Die (Джулиан Джилби / Julian Gilbey) [2011, Великобритания, боевик, триллер, криминал, приключения, BDRip-AVC] MVO (R5) + AVO (Сербин) + Original (Eng) + Subs (Rus, Eng)

    Ответить на тему
     
    Автор Сообщение

    Light

    Создавать темы 03-Май-2015 21:12

           

    [Цитировать]

    Похищенная / A Lonely Place to Die
    «Здесь отличное место для смерти»
    -Страна: Великобритания
    Жанр: боевик, триллер, криминал, приключения
    Год выпуска: 2011
    Продолжительность: 01:39:03-Перевод №1: Профессиональный (многоголосый закадровый) - R5
    Перевод №2: Авторский (одноголосый закадровый) - Ю. Сербин
    Оригинальная аудиодорожка: English
    Cубтитры: Русские (полные - R5, полные - egureko & merrzavka) + English (full SDH)
    Навигация по главам: присутствует - 20 глав-Режиссер: Джулиан Джилби / Julian Gilbey
    В ролях: Мелисса Джордж, Карел Роден, Эдвард Спелирс, Имонн Уолкер, Шон Харрис, Алек Ньюман, Кейт Магован, Гарри Суини, Стивен МакКоул, Пол Андерсон-Описание: Пятеро альпинистов совершают восхождение на одну из шотландских возвышенностей. Поднявшись, они обнаруживают юную девочку, которая непонятно как оказалась одна в совершенно дикой местности…-
    Download sample-Качество видео: BDRip-AVC | исх. BDRemux 1080p - thx: arxivariys
    Формат: MKV-Видео: 1 128x480 (2.35:1), 24.000 fps, H.264 ~2 600 kbps avg, 0.192 bit/pixel
    Аудио №1: 48.0 kHz, AC3 Dolby Digital, 3/2 (L,C,R,l,r) + LFE ch, ~448 kbps | Профессиональный (многоголосый закадровый) - R5
    Аудио №2: 48.0 kHz, AC3 Dolby Digital, 3/2 (L,C,R,l,r) + LFE ch, ~448 kbps | Авторский (одноголосый закадровый) - Ю. Сербин
    Аудио №3: 48.0 kHz, AC3 Dolby Digital, 3/2 (L,C,R,l,r) + LFE ch, ~448 kbps | English
    Субтитры №1: Русские (полные - R5) | *.srt
    Субтитры №2: Русские (полные - egureko & merrzavka) | *.srt
    Субтитры №4: English (full SDH) | *.srt-

    Дополнительные аудиодороги на Яндекс Диск

    Аудио №4: 48.0 kHz, AC3 Dolby Digital, 3/2 (L,C,R,l,r) + LFE ch, ~448 kbps | Одноголосый закадровый - С. Дидок - по субтитрам Юли Бойченко и Евгения Гуренко
    Аудио №5: 48.0 kHz, AC3 Dolby Digital, 3/2 (L,C,R,l,r) + LFE ch, ~448 kbps | Одноголосый закадровый - Lisitz

    MediaInfo

    General
    Unique ID : 186433611035055029743153418038790566605 (0x8C41CEB2A2C1B829A12BF2BBD29BB2CD)
    Complete name : D:\Фильмы\Рипы\A Lonely Place to Die.2011.BDRip-AVC.eFK tRuAVC.mkv
    Format : Matroska
    Format version : Version 4 / Version 2
    File size : 2.71 GiB
    Duration : 1h 39mn
    Overall bit rate : 3 914 Kbps
    Movie name : Похищенная / A Lonely Place to Die (2011) - Release for rutracker
    Encoded date : UTC 2015-05-03 10:25:23
    Writing application : mkvmerge v7.6.0 ('Garden of Dreams') 64bit built on Feb 8 2015 13:04:34
    Writing library : libebml v1.3.1 + libmatroska v1.4.2
    Attachements : cover.png
    DURATION : 01:35:46.709000000
    NUMBER_OF_FRAMES : 923
    NUMBER_OF_BYTES : 32169
    _STATISTICS_WRITING_APP : mkvmerge v7.6.0 ('Garden of Dreams') 64bit built on Feb 8 2015 13:04:34
    _STATISTICS_WRITING_DATE_UT : 2015-05-03 10:25:23
    _STATISTICS_TAGS : BPS DURATION NUMBER_OF_FRAMES NUMBER_OF_BYTES
    Video
    ID : 1
    Format : AVC
    Format/Info : Advanced Video Codec
    Format profile : High@L4.1
    Format settings, CABAC : Yes
    Format settings, ReFrames : 14 frames
    Codec ID : V_MPEG4/ISO/AVC
    Duration : 1h 39mn
    Bit rate : 2 492 Kbps
    Width : 1 128 pixels
    Height : 480 pixels
    Display aspect ratio : 2.35:1
    Frame rate mode : Constant
    Frame rate : 24.000 fps
    Color space : YUV
    Chroma subsampling : 4:2:0
    Bit depth : 8 bits
    Scan type : Progressive
    Bits/(Pixel*Frame) : 0.192
    Stream size : 1.72 GiB (64%)
    Title : eFK tRuAVC
    Writing library : x264 core 146 r2538kMod 121396c
    Encoding settings : cabac=1 / ref=14 / deblock=1:-2:-2 / analyse=0x3:0x133 / me=umh / subme=11 / psy=1 / fade_compensate=0.00 / psy_rd=1.00:0.00 / mixed_ref=1 / me_range=48 / chroma_me=1 / trellis=2 / 8x8dct=1 / cqm=0 / deadzone=21,11 / fast_pskip=0 / chroma_qp_offset=-2 / threads=12 / lookahead_threads=3 / sliced_threads=0 / nr=0 / decimate=1 / interlaced=0 / bluray_compat=0 / constrained_intra=0 / fgo=0 / bframes=16 / b_pyramid=2 / b_adapt=2 / b_bias=0 / direct=3 / weightb=1 / open_gop=0 / weightp=2 / keyint=250 / keyint_min=24 / scenecut=40 / intra_refresh=0 / rc_lookahead=60 / rc=crf / mbtree=1 / crf=18.5000 / qcomp=0.65 / qpmin=0 / qpmax=69 / qpstep=4 / vbv_maxrate=50000 / vbv_bufsize=62500 / crf_max=0.0 / nal_hrd=none / filler=0 / ip_ratio=1.40 / aq=3:1.00
    Language : English
    Default : Yes
    Forced : No
    Color primaries : BT.709
    Transfer characteristics : BT.709
    Matrix coefficients : BT.709
    Color range : Limited
    DURATION : 01:39:02.959000000
    NUMBER_OF_FRAMES : 142631
    NUMBER_OF_BYTES : 1906099555
    _STATISTICS_WRITING_APP : mkvmerge v7.6.0 ('Garden of Dreams') 64bit built on Feb 8 2015 13:04:34
    _STATISTICS_WRITING_DATE_UT : 2015-05-03 10:25:23
    _STATISTICS_TAGS : BPS DURATION NUMBER_OF_FRAMES NUMBER_OF_BYTES
    Audio #1
    ID : 2
    Format : AC-3
    Format/Info : Audio Coding 3
    Mode extension : CM (complete main)
    Format settings, Endianness : Big
    Codec ID : A_AC3
    Duration : 1h 39mn
    Bit rate mode : Constant
    Bit rate : 448 Kbps
    Channel(s) : 6 channels
    Channel positions : Front: L C R, Side: L R, LFE
    Sampling rate : 48.0 KHz
    Bit depth : 16 bits
    Compression mode : Lossy
    Stream size : 317 MiB (11%)
    Title : MVO (R5)
    Language : Russian
    Default : Yes
    Forced : No
    Audio #2
    ID : 3
    Format : AC-3
    Format/Info : Audio Coding 3
    Mode extension : CM (complete main)
    Format settings, Endianness : Big
    Codec ID : A_AC3
    Duration : 1h 39mn
    Bit rate mode : Constant
    Bit rate : 448 Kbps
    Channel(s) : 6 channels
    Channel positions : Front: L C R, Side: L R, LFE
    Sampling rate : 48.0 KHz
    Bit depth : 16 bits
    Compression mode : Lossy
    Stream size : 317 MiB (11%)
    Title : AVO (Сербин)
    Language : Russian
    Default : No
    Forced : No
    Audio #3
    ID : 4
    Format : AC-3
    Format/Info : Audio Coding 3
    Mode extension : CM (complete main)
    Format settings, Endianness : Big
    Codec ID : A_AC3
    Duration : 1h 39mn
    Bit rate mode : Constant
    Bit rate : 448 Kbps
    Channel(s) : 6 channels
    Channel positions : Front: L C R, Side: L R, LFE
    Sampling rate : 48.0 KHz
    Bit depth : 16 bits
    Compression mode : Lossy
    Stream size : 317 MiB (11%)
    Language : English
    Default : No
    Forced : No
    Text #1
    ID : 5
    Format : UTF-8
    Codec ID : S_TEXT/UTF8
    Codec ID/Info : UTF-8 Plain Text
    Title : полные - R5
    Language : Russian
    Default : No
    Forced : No
    Text #2
    ID : 6
    Format : UTF-8
    Codec ID : S_TEXT/UTF8
    Codec ID/Info : UTF-8 Plain Text
    Title : полные - egureko & merrzavka
    Language : Russian
    Default : No
    Forced : No
    Text #3
    ID : 7
    Format : UTF-8
    Codec ID : S_TEXT/UTF8
    Codec ID/Info : UTF-8 Plain Text
    Title : full
    Language : English
    Default : No
    Forced : No
    Menu
    00:00:00.000 : :Chapter 01
    00:07:56.416 : :Chapter 02
    00:12:04.375 : :Chapter 03
    00:15:53.958 : :Chapter 04
    00:21:07.208 : :Chapter 05
    00:26:36.916 : :Chapter 06
    00:33:18.458 : :Chapter 07
    00:36:07.625 : :Chapter 08
    00:42:44.916 : :Chapter 09
    00:47:22.583 : :Chapter 10
    00:52:15.000 : :Chapter 11
    00:57:40.916 : :Chapter 12
    01:02:31.583 : :Chapter 13
    01:07:14.541 : :Chapter 14
    01:13:14.541 : :Chapter 15
    01:17:56.833 : :Chapter 16
    01:22:57.208 : :Chapter 17
    01:27:48.833 : :Chapter 18
    01:29:57.625 : :Chapter 19
    01:34:55.000 : :Chapter 20

    x264 log

    x264 [info]: frame I:1185 Avg QP:14.70 size:105561
    x264 [info]: frame P:36018 Avg QP:19.21 size: 27130
    x264 [info]: frame B:105428 Avg QP:22.00 size: 7625
    x264 [info]: consecutive B-frames: 5.5% 4.9% 10.5% 19.8% 17.3% 27.6% 5.3% 1.7% 1.9% 1.4% 1.1% 0.8% 0.6% 0.5% 0.4% 0.3% 0.5%
    x264 [info]: mb I I16..4: 6.1% 71.2% 22.7%
    x264 [info]: mb P I16..4: 0.8% 10.9% 1.8% P16..4: 31.7% 31.6% 13.2% 2.5% 0.5% skip: 6.9%
    x264 [info]: mb B I16..4: 0.1% 1.7% 0.3% B16..8: 34.5% 16.3% 2.4% direct: 3.9% skip:40.7% L0:42.9% L1:44.4% BI:12.8%
    x264 [info]: 8x8 transform intra:79.4% inter:63.1%
    x264 [info]: direct mvs spatial:99.9% temporal:0.1%
    x264 [info]: coded y,uvDC,uvAC intra: 89.6% 77.6% 44.7% inter: 21.3% 11.9% 1.9%
    x264 [info]: i16 v,h,dc,p: 19% 12% 3% 66%
    x264 [info]: i8 v,h,dc,ddl,ddr,vr,hd,vl,hu: 7% 9% 4% 9% 14% 14% 15% 12% 15%
    x264 [info]: i4 v,h,dc,ddl,ddr,vr,hd,vl,hu: 8% 8% 4% 8% 17% 15% 16% 10% 14%
    x264 [info]: i8c dc,h,v,p: 35% 27% 19% 19%
    x264 [info]: Weighted P-Frames: Y:5.2% UV:3.3%
    x264 [info]: ref P L0: 51.8% 12.7% 13.1% 5.4% 3.9% 3.2% 2.5% 1.5% 1.2% 1.1% 0.9% 0.9% 0.8% 0.8% 0.2% 0.0%
    x264 [info]: ref B L0: 74.1% 10.4% 5.4% 2.5% 1.9% 1.5% 1.2% 0.8% 0.7% 0.5% 0.5% 0.3% 0.1%
    x264 [info]: ref B L1: 92.1% 7.9%
    x264 [info]: kb/s:2565.86
    x264 [total]: encoded 142631 frames, 7.66 fps, 2565.86 kb/s, duration 5:10:30.80

    Screenshots

    ComparisonSource

    Encode
    http://perectracker.org/viewtopic.php?t=3993734 http://screenshotcomparison.com/comparison/124077/picture:0
    Цитата:
    Цитата:

    • За дорогу №2 спасибо HDClub
      Отдельное спасибо за выкуп перевода Ю.Сербина: Loki1982. povidlo, Dervish, Кириллка.
    • Дорожка №5 - Lisitz содержит ненормативную лексику.



    Скачать .torrent

    Скачать торрент-файл бесплатно и на максимальной скорости!

    Как скачивать? · Что такое торрент? · Рейтинг и ограничения

    !ВНИМАНИЕ!
    Сайт не распространяет и не хранит электронные версии произведений, а занимается лишь лишь предоставлением доступа к создаваемому пользователями каталогу ссылок на торрент-файлы, которые содержат только списки хеш-сумм, убедительная просьба с жалобами обращаться напрямую к пользователю. Файлы для обмена на трекере предоставлены пользователями сайта, и администрация не несёт ответственности за их содержание. Просьба не заливать файлы, защищенные авторскими правами, а также файлы нелегального содержания!


    _________________
    [Профиль] [ЛС]
    Показать сообщения:    
    Ответить на тему

    Текущее время: Сегодня, в 12:28

    Часовой пояс: GMT + 2



    Вы не можете начинать темы
    Вы не можете отвечать на сообщения
    Вы не можете редактировать свои сообщения
    Вы не можете удалять свои сообщения
    Вы не можете голосовать в опросах
    Вы не можете прикреплять файлы к сообщениям
    Вы не можете скачивать файлы