Register  ·  Log in
Forgot password?

  • Белые росы (Игорь Добролюбов) [1983, СССР, комедия, HDTV 1080i]

    Reply to topic
    Author Message


    Post 03-May-2015 18:00



    Белые росы
    Страна: СССР
    Студия: "Беларусьфильм"
    Жанр: комедия
    Год выпуска: 1983
    Продолжительность: 01:23:36
    Режиссёр: Игорь Добролюбов
    В ролях: Всеволод Санаев, Николай Караченцов, Станислав Садальский, Михаил Кокшенов, Галина Польских, Борис Новиков, Наталья Харахорина, Александр Беспалый, Юлия Космачева, Стефания Станюта, Геннадий Гарбук, Ирина Егоров
    Описание: В небольшой белорусской деревеньке Белые Росы живет заслуженный и уважаемый человек Федос Ходас. Он уже давно овдовел. Стали взрослыми и три его сына-погодка. И за каждого из них болит отцовское сердце, каждому старается помочь. Старший Андрей - человек основательный, но ему мешает его расчетливость. Балагур и весельчак Васька может потерять семью из-за бывшего возлюбленного его жены Маруси. Средний - Сашка - уехал на Курилы и уже 15 лет не был дома ...

    Качество: HDTV
    Формат: TS
    Видео: H264, 1920x1080 (16:9), 25 fps, 9000 kbps
    Аудио: MPEG Audiо, 2 сh, 48 kHz, 224 kbps


    ID : 1 (0x1)
    Complete name : G:\Белые росы. (1983)_DVB by SLuMeP.ts
    Format : MPEG-TS
    File size : 5.55 GiB
    Duration : 1h 23mn
    Overall bit rate mode : Variable
    Overall bit rate : 9 501 Kbps
    ID : 224 (0xE0)
    Menu ID : 1 (0x1)
    Format : AVC
    Format/Info : Advanced Video Codec
    Format profile : High@L4.1
    Format settings, CABAC : Yes
    Format settings, ReFrames : 3 frames
    Codec ID : 27
    Duration : 1h 23mn
    Bit rate mode : Constant
    Bit rate : 9 000 Kbps
    Width : 1 920 pixels
    Height : 1 080 pixels
    Display aspect ratio : 16:9
    Frame rate : 25.000 fps
    Standard : PAL
    Color space : YUV
    Chroma subsampling : 4:2:0
    Bit depth : 8 bits
    Scan type : Interlaced
    Bits/(Pixel*Frame) : 0.174
    Stream size : 5.14 GiB (93%)
    Color primaries : BT.709
    Transfer characteristics : BT.709
    Matrix coefficients : BT.709
    ID : 192 (0xC0)
    Menu ID : 1 (0x1)
    Format : MPEG Audio
    Format version : Version 1
    Format profile : Layer 2
    Codec ID : 3
    Duration : 1h 23mn
    Bit rate mode : Constant
    Bit rate : 224 Kbps
    Channel(s) : 2 channels
    Sampling rate : 48.0 KHz
    Compression mode : Lossy
    Delay relative to video : 40ms
    Stream size : 134 MiB (2%)
    Language : English


    Download .torrent

    Download free and at maximum speed!

    How to Download? · What is a torrent? · Ratings and Limitations

    The site does not extend and does not store electronic(digital) versions of products, and only gives access to a reference catalogue created by users on torrent-files which contain only lists of the hash-sums, the earnest entreaty, with complaints(abuse) to access directly to the user. Files for an exchange on tracker are given by users of a site, and the administration does not bear the responsibility for their maintenance. The request to not fill in the files protected by copyrights, and also files of the illegal maintenance!

    [Profile] [PM]
    Display posts from previous:    
    Reply to topic

    The time now is: Today 18:51

    All times are GMT + 3 Hours

    You cannot post new topics in this forum
    You cannot reply to topics in this forum
    You cannot edit your posts in this forum
    You cannot delete your posts in this forum
    You cannot vote in polls in this forum
    You cannot attach files in this forum
    You cannot download files in this forum