BitTorrentTracker PerecTracker.org
BitTorrentTracker PerecTracker.org
    
Регистрация  ·  Вход
 
 · 
Забыли пароль?

  • Домик в сердце (Грач Кешишян) [2014, мелодрама, комедия, семейный, WEB-DLRip]

    Ответить на тему
     
    Автор Сообщение

    rechyn

    Создавать темы 03-Май-2015 17:00

           

    [Цитировать]

    Домик в сердце
    Жанр: мелодрама, комедия, семейный
    Год выпуска: 2014
    Продолжительность: 01:29:26
    Режиссёр: Грач Кешишян
    В ролях: Мария Сёмкина, Хорен Левонян, Армен Джигарханян, Екатерина Стриженова, Александр Хачатрян, Джулия Погосова, Сергей Погосов, Эмилия Погосова, Ян Цапник, Олег Шкловский
    Описание: Катя — молодая бизнес-вумен, которой никогда не хватает времени на личную жизнь. Умирая, отец оставляет ей в наследство свою компанию с условием, что она ее получит, лишь когда обзаведется мужем и тремя детьми. По иронии судьбы водитель Кати Артур, и по совместительству отец-одиночка троих детей, остро нуждается в деньгах, чтобы закрыть свои долги. Как им обоим выбраться из своих непростых ситуаций? Решение приходит неожиданно: надо просто вступить в брак по расчету. Но традиции все равно нужно соблюдать, и парочке предстоит увлекательное путешествие на родину Артура — Армению, чтобы как следует познакомиться с его многочисленной родней.
    Сэмпл: http://sendfile.su/1114335
    Качество видео: WEB-DLRip
    Формат видео: AVI
    Видео: 640x320 (2.00:1), 25 fps, XviD build 73 ~1028 kbps avg, 0.20 bit/pixel
    Аудио: 48 kHz, MPEG Layer 3, 2 ch, ~128.00 kbps avg

    MediaInfo

    Формат : AVI
    Формат/Информация : Audio Video Interleave
    Размер файла : 746 Мбайт
    Продолжительность : 1 ч. 29 м.
    Общий поток : 1167 Кбит/сек
    Программа кодирования : VirtualDubMod 1.5.10.3 | www.virtualdub-fr.org || (build 2550/release)
    Библиотека кодирования : VirtualDubMod build 2550/release
    Видео
    Идентификатор : 0
    Формат : MPEG-4 Visual
    Профиль формата : Advanced Simple@L5
    Параметр BVOP формата : 2
    Параметр QPel формата : Нет
    Параметр GMC формата : Без точки перехода
    Параметр матрицы формата : Выборочная
    Идентификатор кодека : XVID
    Идентификатор кодека/Подсказка : XviD
    Продолжительность : 1 ч. 29 м.
    Битрейт : 1029 Кбит/сек
    Ширина : 640 пикселей
    Высота : 320 пикселей
    Соотношение сторон : 2,000
    Частота кадров : 25,000 кадров/сек
    Цветовое пространство : YUV
    Субдискретизация насыщенности : 4:2:0
    Битовая глубина : 8 бит
    Тип развёртки : Прогрессивная
    Метод сжатия : С потерями
    Бит/(Пиксели*Кадры) : 0.201
    Размер потока : 658 Мбайт (88%)
    Библиотека кодирования : XviD 73
    Аудио
    Идентификатор : 1
    Формат : MPEG Audio
    Версия формата : Version 1
    Профиль формата : Layer 3
    Режим : Joint stereo
    Расширение режима : MS Stereo
    Идентификатор кодека : 55
    Идентификатор кодека/Подсказка : MP3
    Продолжительность : 1 ч. 29 м.
    Вид битрейта : Постоянный
    Битрейт : 128 Кбит/сек
    Каналы : 2 канала
    Частота : 48,0 КГц
    Метод сжатия : С потерями
    Размер потока : 81,9 Мбайт (11%)
    Выравнивание : Соединение по промежуткам
    Продолжительность промежутка : 40 мс. (1,00 видеокадр)
    Время предзагрузки промежутка : 504 мс.
    Библиотека кодирования : LAME3.99r
    Настройки программы : -m j -V 4 -q 2 -lowpass 17 -b 128

    Скриншоты

    Скачать .torrent

    Скачать торрент-файл бесплатно и на максимальной скорости!

    Как скачивать? · Что такое торрент? · Рейтинг и ограничения

    !ВНИМАНИЕ!
    Сайт не распространяет и не хранит электронные версии произведений, а занимается лишь лишь предоставлением доступа к создаваемому пользователями каталогу ссылок на торрент-файлы, которые содержат только списки хеш-сумм, убедительная просьба с жалобами обращаться напрямую к пользователю. Файлы для обмена на трекере предоставлены пользователями сайта, и администрация не несёт ответственности за их содержание. Просьба не заливать файлы, защищенные авторскими правами, а также файлы нелегального содержания!


    _________________
    [Профиль] [ЛС]
    Показать сообщения:    
    Ответить на тему

    Текущее время: Сегодня, в 18:54

    Часовой пояс: GMT + 2



    Вы не можете начинать темы
    Вы не можете отвечать на сообщения
    Вы не можете редактировать свои сообщения
    Вы не можете удалять свои сообщения
    Вы не можете голосовать в опросах
    Вы не можете прикреплять файлы к сообщениям
    Вы не можете скачивать файлы