BitTorrentTracker PerecTracker.org
BitTorrentTracker PerecTracker.org
    
Регистрация  ·  Вход
 
 · 
Забыли пароль?

  • Танкисты (Роберт Майман, Зиновий Драпкин) [1939, Военный, драма, DVDRip]

    Ответить на тему
     
    Автор Сообщение

    Light

    Создавать темы 03-Май-2015 12:48

           

    [Цитировать]

    Танкисты
    Год выпуска: 1939
    Жанр: Военный фильм
    Продолжительность: 01:22:52
    Режиссёр: Зиновий Драпкин, Роберт Майман
    В ролях: Г.Горбунов, М.Вольский, А.Кулаков, В.Чобур, И.Кузнецов, И.Орлов, В.Меркурьев, Д.Дудников
    Описание: О действиях советских танкистов в возможной боевой обстановке. Старый вояка - генерал фон Бюллер - весьма умело командует вражескими войсками, сосредоточившимися у города Энсбурга и уже успешно атаковавшими с неба советский город Красноармейск. Танковая группа во главе с комиссаром Ткаченко получает задание перейти на территорию агрессора, разгромить его главные силы и захватить штаб врага.- | Премьера (мир): 5 июня 1942 | Семпл-Дополнительная информация:
    Сценаристы: Зиновий Драпкин, Роберт Майман, Георгий Селиверстов
    Операторы: Александр Сигаев, Моисей (Михаил) Магид
    Композиторы: Даниил Покрасс, Дмитрий Покрасс
    Художники: Дмитрий Рудой, Петр Якимов-Качество: DVDRip
    Формат: AVI
    Видео: 640x496 (1.29:1), 25 fps, XviD ~1117 kbps, 0.14 bit/pixel
    Аудио: 48 kHz, MP3, 2 ch, ~128.00 kbps

    Подробные технические данные

    GeneralComplete name : Tankisty_DVDRip_1939_Olu6ka.aviFormat : AVIFormat/Info : Audio Video InterleaveFile size : 744 MiBDuration : 1h 22mnOverall bit rate : 1 255 KbpsWriting application : VirtualDubMod 1.5.10.3Writing library : VirtualDubMod build 2550/release
    VideoID : 0Format : MPEG-4 VisualFormat profile : Advanced Simple@L5Format settings, BVOP : 1Format settings, QPel : NoFormat settings, GMC : No warppointsFormat settings, Matrix : CustomCodec ID : XVIDCodec ID/Hint : XviDDuration : 1h 22mnBit rate : 1 118 KbpsWidth : 640 pixelsHeight : 496 pixelsDisplay aspect ratio : 1.290Frame rate : 25.000 fpsColor space : YUVChroma subsampling : 4:2:0Bit depth : 8 bitsScan type : ProgressiveCompression mode : LossyBits/(Pixel*Frame) : 0.141Stream size : 662 MiB (89%)Writing library : XviD 73
    AudioID : 1Format : MPEG AudioFormat version : Version 1Format profile : Layer 3Codec ID : 55Codec ID/Hint : MP3Duration : 1h 22mnBit rate mode : ConstantBit rate : 128 KbpsChannel count : 2 channelsSampling rate : 48.0 KHzCompression mode : LossyStream size : 75.9 MiB (10%)Alignment : Aligned on interleavesInterleave, duration : 40 ms (1.00 video frame)Interleave, preload duration : 504 msWriting library : LAME3.99rEncoding settings : -m s -V 4 -q 2 -lowpass 17 -b 128

    Скриншоты

    Сравнение

    http://perectracker.org/viewtopic.php?t=3464965
    http://screenshotcomparison.com/comparison/124594
    апскейл, перекроп верх/низ, недокроп справа

    Цитата:
    Цитата:

    битрейт видео ... не пропорционален выбранному разрешению кадра
    Спасибо W_Alex за исходник!
    Раздача от группы:
    Скачать .torrent

    Скачать торрент-файл бесплатно и на максимальной скорости!

    Как скачивать? · Что такое торрент? · Рейтинг и ограничения

    !ВНИМАНИЕ!
    Сайт не распространяет и не хранит электронные версии произведений, а занимается лишь лишь предоставлением доступа к создаваемому пользователями каталогу ссылок на торрент-файлы, которые содержат только списки хеш-сумм, убедительная просьба с жалобами обращаться напрямую к пользователю. Файлы для обмена на трекере предоставлены пользователями сайта, и администрация не несёт ответственности за их содержание. Просьба не заливать файлы, защищенные авторскими правами, а также файлы нелегального содержания!


    _________________
    [Профиль] [ЛС]
    Показать сообщения:    
    Ответить на тему

    Текущее время: Сегодня, в 12:29

    Часовой пояс: GMT + 2



    Вы не можете начинать темы
    Вы не можете отвечать на сообщения
    Вы не можете редактировать свои сообщения
    Вы не можете удалять свои сообщения
    Вы не можете голосовать в опросах
    Вы не можете прикреплять файлы к сообщениям
    Вы не можете скачивать файлы