BitTorrentTracker PerecTracker.org
BitTorrentTracker PerecTracker.org
    
Регистрация  ·  Вход
 
 · 
Забыли пароль?

  • Последний из Сабудара საბუდარელი ჭაბუკი (Шота Манагадзе) [1957, мелодрама, комедия, WEB-DLRip]

    Ответить на тему
     
    Автор Сообщение

    Light

    Создавать темы 03-Май-2015 04:24

           

    [Цитировать]

    Последний из Сабудара/ Парень из Сабудара/ საბუდარელი ჭაბუკი
    Жанр: мелодрама, комедия
    Год выпуска: 1957
    Продолжительность: 01:16:45
    Язык: грузинский
    Перевод: двухголосый закадровый
    Режиссёр: Шота Манагадзе
    В ролях: Белла Мирианашвили, Имеда Кахиани, Григорий (Григол) Ткабладзе, Зураб Лаперадзе, Гиви Тохадзе, Акакий (Како) Кванталиани, Сесилия Такаишвили, Иосиф (Сосо) Лагидзе, Ипполит Хвичия, Мака Махарадзе, Нодар Мгалоблишвили, Капитон Абесадзе, Нодар Пиранишвили, Мери Канделаки, Шалва Хонели (Гоголашвили), Мариам Мдивани, Лия Сараджишвили, Валентин Донгузашвили, Ерастий Биланишвили, В. Мардалеишвили, Карло Саканделидзе, Еремия Сванадзе
    Описание: Молодой парень живёт в горной грузинской деревне Сабудара. Ему нравится жить на родной земле, рядом со своим отцом — Сачино, мастером гончарного дела. Но однажды он узнаёт, что семья девушки, в которую он влюблён уезжает в Кутаиси. И тогда он решает сбежать из дома вслед за ней.
    Семпл: http://sendfile.su/1114271
    Качество видео: WEB-DLRip
    Формат видео: AVI
    Видео: XVID; 640х480; 4:3 ; 25.000 fps; 1205 Kbps
    Аудио: MPEG Layer 3; 44.1 KHz; 128 Kbps; 2 channels

    MediaInfo

    General
    Format : AVI
    Format/Info : Audio Video Interleave
    File size : 739 MiB
    Duration : 1h 16mn
    Overall bit rate : 1 345 Kbps
    Writing application : Lavf52.84.0
    Video #0
    ID : 0
    Format : xvid
    Codec ID : xvid
    Duration : 1h 16mn
    Bit rate : 1 205 Kbps
    Width : 640 pixels
    Height : 480 pixels
    Display aspect ratio : 4:3
    Frame rate : 25.000 fps
    Bits/(Pixel*Frame) : 0.157
    Stream size : 662 MiB (90%)
    Audio #1
    ID : 1
    Format : MPEG Audio
    Format version : Version 1
    Format profile : Layer 3
    Mode : Joint stereo
    Mode extension : MS Stereo
    Codec ID : 55
    Codec ID/Hint : MP3
    Duration : 1h 16mn
    Bit rate mode : Constant
    Bit rate : 128 Kbps
    Channel(s) : 2 channels
    Sampling rate : 44.1 KHz
    Compression mode : Lossy
    Stream size : 70.3 MiB (10%)
    Alignment : Aligned on interleaves
    Interleave, duration : 26 ms (0.65 video frame)
    Writing library : LAME3.98.4

    Скриншоты





    Скачать .torrent

    Скачать торрент-файл бесплатно и на максимальной скорости!

    Как скачивать? · Что такое торрент? · Рейтинг и ограничения

    !ВНИМАНИЕ!
    Сайт не распространяет и не хранит электронные версии произведений, а занимается лишь лишь предоставлением доступа к создаваемому пользователями каталогу ссылок на торрент-файлы, которые содержат только списки хеш-сумм, убедительная просьба с жалобами обращаться напрямую к пользователю. Файлы для обмена на трекере предоставлены пользователями сайта, и администрация не несёт ответственности за их содержание. Просьба не заливать файлы, защищенные авторскими правами, а также файлы нелегального содержания!


    _________________
    [Профиль] [ЛС]
    Показать сообщения:    
    Ответить на тему

    Текущее время: Сегодня, в 18:04

    Часовой пояс: GMT + 2



    Вы не можете начинать темы
    Вы не можете отвечать на сообщения
    Вы не можете редактировать свои сообщения
    Вы не можете удалять свои сообщения
    Вы не можете голосовать в опросах
    Вы не можете прикреплять файлы к сообщениям
    Вы не можете скачивать файлы