Register  ·  Log in
Forgot password?

  • Последний из Сабудара საბუდარელი ჭაბუკი (Шота Манагадзе) [1957, мелодрама, комедия, WEB-DLRip]

    Reply to topic
    Author Message


    Post 03-May-2015 05:24



    Последний из Сабудара/ Парень из Сабудара/ საბუდარელი ჭაბუკი
    Жанр: мелодрама, комедия
    Год выпуска: 1957
    Продолжительность: 01:16:45
    Язык: грузинский
    Перевод: двухголосый закадровый
    Режиссёр: Шота Манагадзе
    В ролях: Белла Мирианашвили, Имеда Кахиани, Григорий (Григол) Ткабладзе, Зураб Лаперадзе, Гиви Тохадзе, Акакий (Како) Кванталиани, Сесилия Такаишвили, Иосиф (Сосо) Лагидзе, Ипполит Хвичия, Мака Махарадзе, Нодар Мгалоблишвили, Капитон Абесадзе, Нодар Пиранишвили, Мери Канделаки, Шалва Хонели (Гоголашвили), Мариам Мдивани, Лия Сараджишвили, Валентин Донгузашвили, Ерастий Биланишвили, В. Мардалеишвили, Карло Саканделидзе, Еремия Сванадзе
    Описание: Молодой парень живёт в горной грузинской деревне Сабудара. Ему нравится жить на родной земле, рядом со своим отцом — Сачино, мастером гончарного дела. Но однажды он узнаёт, что семья девушки, в которую он влюблён уезжает в Кутаиси. И тогда он решает сбежать из дома вслед за ней.
    Качество видео: WEB-DLRip
    Формат видео: AVI
    Видео: XVID; 640х480; 4:3 ; 25.000 fps; 1205 Kbps
    Аудио: MPEG Layer 3; 44.1 KHz; 128 Kbps; 2 channels


    Format : AVI
    Format/Info : Audio Video Interleave
    File size : 739 MiB
    Duration : 1h 16mn
    Overall bit rate : 1 345 Kbps
    Writing application : Lavf52.84.0
    Video #0
    ID : 0
    Format : xvid
    Codec ID : xvid
    Duration : 1h 16mn
    Bit rate : 1 205 Kbps
    Width : 640 pixels
    Height : 480 pixels
    Display aspect ratio : 4:3
    Frame rate : 25.000 fps
    Bits/(Pixel*Frame) : 0.157
    Stream size : 662 MiB (90%)
    Audio #1
    ID : 1
    Format : MPEG Audio
    Format version : Version 1
    Format profile : Layer 3
    Mode : Joint stereo
    Mode extension : MS Stereo
    Codec ID : 55
    Codec ID/Hint : MP3
    Duration : 1h 16mn
    Bit rate mode : Constant
    Bit rate : 128 Kbps
    Channel(s) : 2 channels
    Sampling rate : 44.1 KHz
    Compression mode : Lossy
    Stream size : 70.3 MiB (10%)
    Alignment : Aligned on interleaves
    Interleave, duration : 26 ms (0.65 video frame)
    Writing library : LAME3.98.4


    Download .torrent

    Download free and at maximum speed!

    How to Download? · What is a torrent? · Ratings and Limitations

    The site does not extend and does not store electronic(digital) versions of products, and only gives access to a reference catalogue created by users on torrent-files which contain only lists of the hash-sums, the earnest entreaty, with complaints(abuse) to access directly to the user. Files for an exchange on tracker are given by users of a site, and the administration does not bear the responsibility for their maintenance. The request to not fill in the files protected by copyrights, and also files of the illegal maintenance!

    [Profile] [PM]
    Display posts from previous:    
    Reply to topic

    The time now is: Today 15:07

    All times are GMT + 3 Hours

    You cannot post new topics in this forum
    You cannot reply to topics in this forum
    You cannot edit your posts in this forum
    You cannot delete your posts in this forum
    You cannot vote in polls in this forum
    You cannot attach files in this forum
    You cannot download files in this forum