BitTorrentTracker PerecTracker.org
BitTorrentTracker PerecTracker.org
    
Регистрация  ·  Вход
 
 · 
Забыли пароль?

  • Когда женщина оседлает коня (Ходжакули Нарлиев) [1974, поэтическая драма, историко-революционный, VHSRip]

    Ответить на тему
     
    Автор Сообщение

    Light

    Создавать темы 03-Май-2015 00:12

           

    [Цитировать]

    Когда женщина оседлает коня
    Жанр: поэтическая драма, историко-революционный
    Год выпуска: 1974
    Продолжительность: 01:28:08
    Язык: русский (профессиональный дублированный)
    Режиссёр: Ходжакули Нарлиев
    В ролях: Майя (Мая-Гозель) Аймедова, Ходжан Овезгеленов, Алексей Краснопольский, Ходжаберды Нарлиев, Баба Аннанов, А. Байрамбердыев, П.Атаев, Хоммат Муллык, Ходжадурды Нарлиев, Айнабат Аманлиева, Фахрия Алиева, Акмурад Бяшимов, Гудьфида Гафурова, Огулькурбан Дурдыева, Сона Мурадова, Ходжакули Нарлиев, Аман Одаев, Сапар (Сапармурад) Одаев, Антонина Рустамова, Рано Хамраева, Куллук Ходжаев (озвучание - Инна Выходцева, Артем Карапетян, Геннадий Крашенинников, Алексей Панькин, Евгений Жариков, Константин Тыртов, Анатолий Кузнецов, Виктор Филиппов)
    Описание: Фильм посвящен Эйне Кулиевой, возглавившей в 1920-е годы первый женотдел советской Туркмении. Молодая женщина уезжает из родного дома и вступает в ряды женотдела (Отдел по работе среди женщин при комитетах ВКП(б)) для того, чтобы проводить пропаганду коллективизации, равноправия женщин, обучать ремеслу и грамоте. Героиня старается привлечь женское население молодой советской республики - и сталкивается со всеми трудностями и заботами своих подопечных...
    Семпл: https://www.sendspace.com/file/uwxbam
    Качество видео: VHSRip
    Формат видео: AVI
    Видео: 640x368 (1.74:1), 25 fps, XviD build 50, 1989 kbps avg, 0.34 bit/pixel
    Аудио: 44.100 kHz,MPEG Layer 3, 2 ch, 120.42 kbps avg

    MediaInfo

    Общее
    Полное имя : E:\Когда женьщина оседлает коня.1974_xvid.avi
    Формат : AVI
    Формат/Информация : Audio Video Interleave
    Профиль формата : OpenDML
    Размер файла : 1,31 Гбайт
    Продолжительность : 1 ч. 28 м.
    Режим общего битрейта : Переменный
    Общий поток : 2126 Кбит/сек
    Программа кодирования : MEncoder Sherpya-SVN-r32492-4.2.5
    Библиотека кодирования : MPlayer
    Видео
    Идентификатор : 0
    Формат : MPEG-4 Visual
    Профиль формата : Simple@L3
    Параметр BVOP формата : Нет
    Параметр QPel формата : Нет
    Параметр GMC формата : Без точки перехода
    Параметр матрицы формата : Default (H.263)
    Идентификатор кодека : XVID
    Идентификатор кодека/Подсказка : XviD
    Продолжительность : 1 ч. 28 м.
    Битрейт : 1990 Кбит/сек
    Ширина : 640 пикселей
    Высота : 368 пикселей
    Соотношение сторон : 16:9
    Соотношение сторон в оригинале : 1,739
    Частота кадров : 25,000 кадров/сек
    Цветовое пространство : YUV
    Субдискретизация насыщенности : 4:2:0
    Битовая глубина : 8 бит
    Тип развёртки : Прогрессивная
    Метод сжатия : С потерями
    Бит/(Пиксели*Кадры) : 0.338
    Размер потока : 1,23 Гбайт (94%)
    Библиотека кодирования : XviD 1.2.1 (UTC 2008-12-04)
    Аудио
    Идентификатор : 1
    Формат : MPEG Audio
    Версия формата : Version 1
    Профиль формата : Layer 3
    Режим : Joint stereo
    Расширение режима : MS Stereo
    Идентификатор кодека : 55
    Идентификатор кодека/Подсказка : MP3
    Продолжительность : 1 ч. 28 м.
    Вид битрейта : Переменный
    Битрейт : 120 Кбит/сек
    Каналы : 2 канала
    Частота : 44,1 КГц
    Метод сжатия : С потерями
    Размер потока : 75,9 Мбайт (6%)
    Выравнивание : Соединение по промежуткам
    Продолжительность промежутка : 26 мс. (0,65 видеокадр)
    Время предзагрузки промежутка : 433 мс.

    Скриншоты

    Скачать .torrent

    Скачать торрент-файл бесплатно и на максимальной скорости!

    Как скачивать? · Что такое торрент? · Рейтинг и ограничения

    !ВНИМАНИЕ!
    Сайт не распространяет и не хранит электронные версии произведений, а занимается лишь лишь предоставлением доступа к создаваемому пользователями каталогу ссылок на торрент-файлы, которые содержат только списки хеш-сумм, убедительная просьба с жалобами обращаться напрямую к пользователю. Файлы для обмена на трекере предоставлены пользователями сайта, и администрация не несёт ответственности за их содержание. Просьба не заливать файлы, защищенные авторскими правами, а также файлы нелегального содержания!


    _________________
    [Профиль] [ЛС]
    Показать сообщения:    
    Ответить на тему

    Текущее время: Сегодня, в 02:35

    Часовой пояс: GMT + 2



    Вы не можете начинать темы
    Вы не можете отвечать на сообщения
    Вы не можете редактировать свои сообщения
    Вы не можете удалять свои сообщения
    Вы не можете голосовать в опросах
    Вы не можете прикреплять файлы к сообщениям
    Вы не можете скачивать файлы