BitTorrentTracker PerecTracker.org
BitTorrentTracker PerecTracker.org
    
Регистрация  ·  Вход
 
 · 
Забыли пароль?

  • Пропало лето (Ролан Быков, Никита Орлов) [1963, комедия, DVDRip-AVC]

    Ответить на тему
     
    Автор Сообщение

    Light

    Создавать темы 02-Май-2015 19:48

           

    [Цитировать]

    Пропало лето-Жанр: комедия
    Год выпуска: 1963
    Продолжительность: 01:14:23-Режиссёр: Ролан Быков, Никита Орлов-В ролях:
    Владимир Евстафьев, Сергей Гудко, Зоя Федорова, Антонина Дмитриева, Лидия Чернышева, Владимир Швец, Юрий Смирнов, Алексей Попов, Иван Цапич, Александр Лебедев, Алексей Жарков, Михаил Пуговкин, Яков Ленц, Владимир Пицек, Николай Кузнецов, Павел Павленко
    Описание:
    Два шестиклассника отправляются на летние каникулы в деревню. По дороге один из них бросает своего друга, поскольку надеется принять участие в настоящей экспедиции. Но оказывается, что второго ждут куда более интересные и увлекательные приключения...-Исходник | Сэмпл | Кинопоиск-Качество видео: DVDRip-AVC
    Формат видео: MKV
    Видео: x264 (High@L4.1); 720@768x388, Display aspect ratio 1.979:1, 25.000 fps, 2500 Kbps
    Аудио: Оригинал: AC-3; 16 bit 48 Khz; 2.0ch 192 Kbps; CBR
    MediaInfo

    -

    х264 log

    avs [info]: 720x388p 16:15 @ 25/1 fps (cfr)
    x264 [info]: using SAR=16/15
    x264 [info]: using cpu capabilities: MMX2 SSE2Fast SSSE3 SSE4.2
    x264 [info]: profile High, level 4.1
    x264 [info]: frame I:705 Avg QP:19.67 size: 44975
    x264 [info]: frame P:25412 Avg QP:22.41 size: 22578
    x264 [info]: frame B:85467 Avg QP:25.10 size: 9238
    x264 [info]: consecutive B-frames: 2.4% 3.6% 9.2% 21.0% 11.0% 49.2% 2.8% 0.9%
    x264 [info]: mb I I16..4: 4.8% 74.4% 20.8%
    x264 [info]: mb P I16..4: 0.6% 18.8% 3.6% P16..4: 29.4% 31.0% 12.4% 2.3% 0.3% skip: 1.6%
    x264 [info]: mb B I16..4: 0.1% 5.6% 0.7% B16..8: 35.4% 20.0% 3.7% direct:10.4% skip:24.0% L0:37.9% L1:34.8% BI:27.3%
    x264 [info]: 8x8 transform intra:83.7% inter:60.3%
    x264 [info]: direct mvs spatial:99.3% temporal:0.7%
    x264 [info]: coded y,uvDC,uvAC intra: 91.1% 0.4% 0.0% inter: 41.0% 0.1% 0.0%
    x264 [info]: i16 v,h,dc,p: 18% 27% 6% 48%
    x264 [info]: i8 v,h,dc,ddl,ddr,vr,hd,vl,hu: 12% 9% 10% 9% 11% 11% 12% 12% 14%
    x264 [info]: i4 v,h,dc,ddl,ddr,vr,hd,vl,hu: 37% 8% 5% 6% 9% 9% 9% 8% 9%
    x264 [info]: i8c dc,h,v,p: 85% 15% 0% 0%
    x264 [info]: Weighted P-Frames: Y:34.4% UV:0.1%
    x264 [info]: ref P L0: 38.7% 13.8% 14.9% 7.3% 5.2% 4.3% 3.4% 2.1% 1.8% 1.7% 1.4% 1.3% 1.1% 1.1% 1.0% 0.8%
    x264 [info]: ref B L0: 74.7% 10.9% 4.0% 2.4% 1.7% 1.5% 1.1% 0.8% 0.6% 0.6% 0.5% 0.5% 0.4% 0.3% 0.1%
    x264 [info]: ref B L1: 95.0% 5.0%
    x264 [info]: kb/s:2500.30
    x264 [total]: encoded 111584 frames, 13.57 fps, 2500.31 kb/s
    -Unique ID : 196929354283287926045075872104504975771 (0x942736CAF3BA4F9A82A7E3C917B5619B)
    Complete name : Пропало лето.1963.mkv
    Format : Matroska
    Format version : Version 2
    File size : 1.40 GiB
    Duration : 1h 14mn
    Overall bit rate : 2 694 Kbps
    Movie name : «Пропало лето»
    Encoded date : UTC 2015-05-01 14:48:36
    Writing application : mkvmerge v5.8.0 ('No Sleep / Pillow') built on Sep 2 2012 15:37:04
    Writing library : libebml v1.2.3 + libmatroska v1.3.0
    Comment : DVDRip-AVC
    Originally released : April 30th 2015
    Encoded by : george$t®
    Video
    ID : 1
    Format : AVC
    Format/Info : Advanced Video Codec
    Format profile : High@L4.1
    Format settings, CABAC : Yes
    Format settings, ReFrames : 16 frames
    Codec ID : V_MPEG4/ISO/AVC
    Duration : 1h 14mn
    Bit rate : 2 500 Kbps
    Width : 720 pixels
    Height : 388 pixels
    Display aspect ratio : 1.979
    Frame rate mode : Constant
    Frame rate : 25.000 fps
    Color space : YUV
    Chroma subsampling : 4:2:0
    Bit depth : 8 bits
    Scan type : Progressive
    Bits/(Pixel*Frame) : 0.358
    Stream size : 1.27 GiB (91%)
    Title : Пропало лето.1963
    Writing library : x264 core 146 r2538 121396c
    Encoding settings : cabac=1 / ref=16 / deblock=1:-2:0 / analyse=0x3:0x133 / me=umh / subme=11 / psy=1 / psy_rd=0.95:0.15 / mixed_ref=1 / me_range=48 / chroma_me=1 / trellis=2 / 8x8dct=1 / cqm=0 / deadzone=21,11 / fast_pskip=0 / chroma_qp_offset=-3 / threads=12 / lookahead_threads=2 / sliced_threads=0 / nr=0 / decimate=0 / interlaced=0 / bluray_compat=0 / constrained_intra=0 / bframes=7 / b_pyramid=2 / b_adapt=2 / b_bias=0 / direct=3 / weightb=1 / open_gop=0 / weightp=2 / keyint=250 / keyint_min=25 / scenecut=40 / intra_refresh=0 / rc_lookahead=60 / rc=2pass / mbtree=1 / bitrate=2500 / ratetol=1.0 / qcomp=0.70 / qpmin=0 / qpmax=32 / qpstep=4 / cplxblur=20.0 / qblur=0.5 / vbv_maxrate=50000 / vbv_bufsize=62500 / nal_hrd=none / filler=0 / ip_ratio=1.35 / aq=1:0.90
    Language : Russian
    Default : Yes
    Forced : No
    Color primaries : BT.601 PAL
    Transfer characteristics : BT.470 System B, BT.470 System G
    Matrix coefficients : BT.601
    Color range : Limited
    Audio
    ID : 2
    Format : AC-3
    Format/Info : Audio Coding 3
    Mode extension : CM (complete main)
    Format settings, Endianness : Big
    Codec ID : A_AC3
    Duration : 1h 14mn
    Bit rate mode : Constant
    Bit rate : 192 Kbps
    Channel(s) : 2 channels
    Channel positions : Front: L R
    Sampling rate : 48.0 KHz
    Bit depth : 16 bits
    Compression mode : Lossy
    Stream size : 102 MiB (7%)
    Title : Оригинал: AC-3; 16 bit 48 Khz; 2.0ch 192 Kbps; CBR
    Language : Russian
    Default : Yes
    Forced : No
    Скачать .torrent

    Скачать торрент-файл бесплатно и на максимальной скорости!

    Как скачивать? · Что такое торрент? · Рейтинг и ограничения

    !ВНИМАНИЕ!
    Сайт не распространяет и не хранит электронные версии произведений, а занимается лишь лишь предоставлением доступа к создаваемому пользователями каталогу ссылок на торрент-файлы, которые содержат только списки хеш-сумм, убедительная просьба с жалобами обращаться напрямую к пользователю. Файлы для обмена на трекере предоставлены пользователями сайта, и администрация не несёт ответственности за их содержание. Просьба не заливать файлы, защищенные авторскими правами, а также файлы нелегального содержания!


    _________________
    [Профиль] [ЛС]
    Показать сообщения:    
    Ответить на тему

    Текущее время: Сегодня, в 08:53

    Часовой пояс: GMT + 2



    Вы не можете начинать темы
    Вы не можете отвечать на сообщения
    Вы не можете редактировать свои сообщения
    Вы не можете удалять свои сообщения
    Вы не можете голосовать в опросах
    Вы не можете прикреплять файлы к сообщениям
    Вы не можете скачивать файлы