BitTorrentTracker PerecTracker.org
BitTorrentTracker PerecTracker.org
    
Регистрация  ·  Вход
 
 · 
Забыли пароль?

  • Молодая кровь / Son of a Gun (Джулиус Эйвери / Julius Avery) [2014, Австралия, боевик, драма, криминал, BDRip-AVC] VO + Original (Eng) + Sub (Rus, Eng)

    Ответить на тему
     
    Автор Сообщение

    Light

    Создавать темы 02-Май-2015 11:24

           

    [Цитировать]

    Молодая кровь / Son of a Gun
    Страна: Австралия
    Жанр: боевик, драма, криминал
    Год выпуска: 2014
    Продолжительность: 01:49:12
    Перевод: Одноголосый закадровый - den904, перевод - Antonio
    Оригинальная аудиодорожка: английский
    Cубтитры: русские (Antonio), английские (полные)-Режиссер: Джулиус Эйвери / Julius Avery
    В ролях: Брентон Туэйтс (JR), Юэн МакГрегор (Brendan), Алисия Викандер (Tasha), Мэтью Нэйбл (Sterlo), Эдди Бару (Merv), Нэш Эдгертон (Chris), Яцек Коман (Sam), Том Бадж (Josh), Рик Тонна (Russian #1), Марко Йованович (Ken), Сэм Хатчин (Dave)-Описание: В тюрьме без "крыши" долго не протянешь. К счастью для Джея, у него нашелся такой защитник. Да еще и прославленный Брэндан Линч! И, кажется, у опытного бандита далеко идущие планы на юношу. Планы эти сбываются, набирают ход, пока в дело, как это чаще всего и происходит, не вмешивается женщина. Джею спешно приходится пересмотреть повестку дня, иначе "жили счастливо" может оказаться чересчур коротким и слишком быстро перерастет в "умерли в один день".-СЭМПЛ
    Тип релиза: BDRip-AVC
    Исходник: Son.Of.A.Gun.2014.1080p.REMUX.BluRay.AVC.DTS.HD.MA.5.1-HDAccess
    Контейнер: MKV
    Видео: 1152x480p / 23.976 fps / 2.40:1 / High Profile 4.1 / AVC / ~ 2030 Kbps
    Аудио 1: AC3 / 384 Kbps / 5.1 / 48 kHz / Russian / VO - den904
    Аудио 2: AC3 / 448 Kbps / 5.1 / 48 kHz / English / original
    Формат субтитров: softsub (SRT)-IMDB * КиноПоиск-Внимание: в русских озвучке и субтитрах присутствует ненормативная лексика!

    MediaInfo / x264 log

    General
    Complete name : Son.Of.A.Gun.2014.BDRip-AVC.VO.mkv
    Format : Matroska
    Format version : Version 2
    File size : 2.18 GiB
    Duration : 1h 49mn
    Overall bit rate : 2 855 Kbps
    Encoded date : UTC 2015-05-01 09:20:06
    Writing application : mkvmerge v5.8.0 ('No Sleep / Pillow') built on Sep 2 2012 15:37:04
    Writing library : libebml v1.2.3 + libmatroska v1.3.0
    Video
    ID : 1
    Format : AVC
    Format/Info : Advanced Video Codec
    Format profile : High@L4.1
    Format settings, CABAC : Yes
    Format settings, ReFrames : 12 frames
    Codec ID : V_MPEG4/ISO/AVC
    Duration : 1h 49mn
    Bit rate : 2 030 Kbps
    Width : 1 152 pixels
    Height : 480 pixels
    Display aspect ratio : 2.40:1
    Frame rate mode : Constant
    Frame rate : 23.976 fps
    Color space : YUV
    Chroma subsampling : 4:2:0
    Bit depth : 8 bits
    Scan type : Progressive
    Bits/(Pixel*Frame) : 0.153
    Stream size : 1.50 GiB (69%)
    Title : Son Of A Gun 2014
    Writing library : x264 core 144 r2525 40bb568
    Encoding settings : cabac=1 / ref=12 / deblock=1:-3:-3 / analyse=0x3:0x113 / me=umh / subme=11 / psy=1 / psy_rd=1.10:0.00 / mixed_ref=1 / me_range=24 / chroma_me=1 / trellis=2 / 8x8dct=1 / cqm=0 / deadzone=21,11 / fast_pskip=1 / chroma_qp_offset=-2 / threads=6 / lookahead_threads=1 / sliced_threads=0 / nr=0 / decimate=1 / interlaced=0 / bluray_compat=0 / constrained_intra=0 / bframes=9 / b_pyramid=2 / b_adapt=2 / b_bias=0 / direct=3 / weightb=1 / open_gop=0 / weightp=2 / keyint=240 / keyint_min=23 / scenecut=40 / intra_refresh=0 / rc=2pass / mbtree=0 / bitrate=2030 / ratetol=1.0 / qcomp=0.60 / qpmin=0 / qpmax=69 / qpstep=4 / cplxblur=20.0 / qblur=0.5 / ip_ratio=1.40 / pb_ratio=1.30 / aq=2:0.90
    Default : Yes
    Forced : No
    Audio #1
    ID : 2
    Format : AC-3
    Format/Info : Audio Coding 3
    Mode extension : CM (complete main)
    Format settings, Endianness : Big
    Codec ID : A_AC3
    Duration : 1h 49mn
    Bit rate mode : Constant
    Bit rate : 384 Kbps
    Channel(s) : 6 channels
    Channel positions : Front: L C R, Side: L R, LFE
    Sampling rate : 48.0 KHz
    Bit depth : 16 bits
    Compression mode : Lossy
    Stream size : 300 MiB (13%)
    Title : RUS AC3 384 6ch VO den904
    Language : Russian
    Default : Yes
    Forced : No
    Audio #2
    ID : 3
    Format : AC-3
    Format/Info : Audio Coding 3
    Mode extension : CM (complete main)
    Format settings, Endianness : Big
    Codec ID : A_AC3
    Duration : 1h 49mn
    Bit rate mode : Constant
    Bit rate : 448 Kbps
    Channel(s) : 6 channels
    Channel positions : Front: L C R, Side: L R, LFE
    Sampling rate : 48.0 KHz
    Bit depth : 16 bits
    Compression mode : Lossy
    Stream size : 350 MiB (16%)
    Title : ENG AC3 448 6ch original
    Language : English
    Default : No
    Forced : No
    Text #1
    ID : 4
    Format : UTF-8
    Codec ID : S_TEXT/UTF8
    Codec ID/Info : UTF-8 Plain Text
    Title : RUS Sub Antonio
    Language : Russian
    Default : No
    Forced : No
    Text #2
    ID : 5
    Format : UTF-8
    Codec ID : S_TEXT/UTF8
    Codec ID/Info : UTF-8 Plain Text
    Title : ENG Sub
    Language : English
    Default : No
    Forced : No
    Menu
    00:00:00.000 : :Chapter 01
    00:07:40.835 : :Chapter 02
    00:13:11.791 : :Chapter 03
    00:20:01.158 : :Chapter 04
    00:27:08.126 : :Chapter 05
    00:34:13.927 : :Chapter 06
    00:43:23.851 : :Chapter 07
    00:50:19.308 : :Chapter 08
    00:55:57.980 : :Chapter 09
    01:01:16.506 : :Chapter 10
    01:08:14.632 : :Chapter 11
    01:14:52.655 : :Chapter 12
    01:20:20.774 : :Chapter 13
    01:28:29.971 : :Chapter 14
    01:34:12.313 : :Chapter 15
    01:40:08.628 : :Chapter 16-x264 [info]: frame I:1368 Avg QP:14.53 size: 69220
    x264 [info]: frame P:34660 Avg QP:17.68 size: 20662
    x264 [info]: frame B:121070 Avg QP:19.92 size: 6973
    x264 [info]: consecutive B-frames: 2.4% 2.7% 9.0% 20.1% 18.7% 37.0% 5.3% 1.3% 1.4% 2.1%

    Скриншот с названием

    Скриншоты



    Скачать .torrent

    Скачать торрент-файл бесплатно и на максимальной скорости!

    Как скачивать? · Что такое торрент? · Рейтинг и ограничения

    !ВНИМАНИЕ!
    Сайт не распространяет и не хранит электронные версии произведений, а занимается лишь лишь предоставлением доступа к создаваемому пользователями каталогу ссылок на торрент-файлы, которые содержат только списки хеш-сумм, убедительная просьба с жалобами обращаться напрямую к пользователю. Файлы для обмена на трекере предоставлены пользователями сайта, и администрация не несёт ответственности за их содержание. Просьба не заливать файлы, защищенные авторскими правами, а также файлы нелегального содержания!


    _________________
    [Профиль] [ЛС]
    Показать сообщения:    
    Ответить на тему

    Текущее время: Сегодня, в 02:14

    Часовой пояс: GMT + 2



    Вы не можете начинать темы
    Вы не можете отвечать на сообщения
    Вы не можете редактировать свои сообщения
    Вы не можете удалять свои сообщения
    Вы не можете голосовать в опросах
    Вы не можете прикреплять файлы к сообщениям
    Вы не можете скачивать файлы