BitTorrentTracker PerecTracker.org
BitTorrentTracker PerecTracker.org
    
Регистрация  ·  Вход
 
 · 
Забыли пароль?

  • До конца лета / By Summer\'s End / Ad sof ha-kaitz (Ноа Ахарони / Noa Aharoni) [2011, Израиль, семейная драма, HDTVRip] DVO (Студия Эльром) + Sub Heb + Original Heb

    Ответить на тему
     
    Автор Сообщение

    Light

    Создавать темы 02-Май-2015 11:24

           

    [Цитировать]

    До конца лета / By Summer's End / Ad sof ha-kaitz
    Страна: Израиль
    Жанр: семейная драма
    Год выпуска: 2011
    Продолжительность: 01:32:14
    Перевод: Профессиональный (двухголосый закадровый) Студия Эльром
    Cубтитры: иврит
    Оригинальная аудиодорожка: иврит
    Режиссер: Ноа Ахарони / Noa Aharoni
    В ролях: Михаль Варшай, Яир Рубин, Сарит Вино-Эльад, Ишай Голан, Бар Минали
    Описание: Лето '78, но Михаль волнует гораздо больше не подписание мирных соглашений в Кэмп-Дэвиде, а то что ее 7-летняя дочь Майя до сих пор не умеет ни читать не писать. Учительница собирается оставить Майю на еще один год и Михаль клянется, что до конца лета Майя научиться читать и писать, и перейдет во второй класс с остальными детьми. Но это лето оказывается полным сюрпризов для семьи. Отец Михаль, Хаим, пропадавший без вести в течение 30 лет, вдруг возвращается, и приносит с собой темное прошлое семьи и скрытые тайны. До конца лета Михаль и ее сестре Наоми придется иметь дело с прошлым, которое они так старались похоронить.
    Доп. информация: За запись звука с ТВ спасибо abraka.
    В рипе присутствует ивритский хардсаб.
    Сэмпл: http://multi-up.com/1046424
    Качество видео: HDTVRip
    Формат видео: AVI
    Видео: Xvid 624x352 25fps 931kbps
    Аудио: MP3 48000Hz stereo 128kbps
    Аудио 2: MP3 48000Hz stereo 119kbps
    Формат субтитров: hardsub (неотключаемые)

    MediaInfo

    General
    Complete name : C:\downloads\By.Summers.End.2011.HDTV.XviD-Sweet-Star\do konca2.avi
    Format : AVI
    Format/Info : Audio Video Interleave
    File size : 789 MiB
    Duration : 1h 32mn
    Overall bit rate mode : Variable
    Overall bit rate : 1 195 Kbps
    Writing application : VirtualDubMod 1.5.10.2 (build 2540/release)
    Writing library : VirtualDubMod build 2540/release
    Video
    ID : 0
    Format : MPEG-4 Visual
    Format profile : Advanced Simple@L5
    Format settings, BVOP : Yes
    Format settings, QPel : No
    Format settings, GMC : No warppoints
    Format settings, Matrix : Default (H.263)
    Codec ID : XVID
    Codec ID/Hint : XviD
    Duration : 1h 32mn
    Bit rate : 931 Kbps
    Width : 624 pixels
    Height : 352 pixels
    Display aspect ratio : 16:9
    Frame rate : 25.000 fps
    Color space : YUV
    Chroma subsampling : 4:2:0
    Bit depth : 8 bits
    Scan type : Interlaced
    Scan order : Bottom Field First
    Compression mode : Lossy
    Bits/(Pixel*Frame) : 0.170
    Stream size : 614 MiB (78%)
    Writing library : XviD 64
    Audio #1
    ID : 1
    Format : MPEG Audio
    Format version : Version 1
    Format profile : Layer 3
    Mode : Joint stereo
    Mode extension : MS Stereo
    Codec ID : 55
    Codec ID/Hint : MP3
    Duration : 1h 31mn
    Bit rate mode : Constant
    Bit rate : 128 Kbps
    Channel(s) : 2 channels
    Sampling rate : 48.0 KHz
    Compression mode : Lossy
    Stream size : 83.6 MiB (11%)
    Alignment : Aligned on interleaves
    Interleave, duration : 40 ms (1.01 video frame)
    Interleave, preload duration : 504 ms
    Audio #2
    ID : 2
    Format : MPEG Audio
    Format version : Version 1
    Format profile : Layer 3
    Mode : Joint stereo
    Mode extension : MS Stereo
    Codec ID : 55
    Codec ID/Hint : MP3
    Duration : 1h 32mn
    Bit rate mode : Variable
    Bit rate : 120 Kbps
    Nominal bit rate : 128 Kbps
    Channel(s) : 2 channels
    Sampling rate : 48.0 KHz
    Compression mode : Lossy
    Stream size : 79.0 MiB (10%)
    Alignment : Aligned on interleaves
    Interleave, duration : 24 ms (0.60 video frame)
    Interleave, preload duration : 548 ms
    Writing library : LAME3.98r
    Encoding settings : -m j -V 4 -q 2 -lowpass 17 --abr 128

    Скриншоты



    Скачать .torrent

    Скачать торрент-файл бесплатно и на максимальной скорости!

    Как скачивать? · Что такое торрент? · Рейтинг и ограничения

    !ВНИМАНИЕ!
    Сайт не распространяет и не хранит электронные версии произведений, а занимается лишь лишь предоставлением доступа к создаваемому пользователями каталогу ссылок на торрент-файлы, которые содержат только списки хеш-сумм, убедительная просьба с жалобами обращаться напрямую к пользователю. Файлы для обмена на трекере предоставлены пользователями сайта, и администрация не несёт ответственности за их содержание. Просьба не заливать файлы, защищенные авторскими правами, а также файлы нелегального содержания!


    _________________
    [Профиль] [ЛС]
    Показать сообщения:    
    Ответить на тему

    Текущее время: Сегодня, в 20:33

    Часовой пояс: GMT + 2



    Вы не можете начинать темы
    Вы не можете отвечать на сообщения
    Вы не можете редактировать свои сообщения
    Вы не можете удалять свои сообщения
    Вы не можете голосовать в опросах
    Вы не можете прикреплять файлы к сообщениям
    Вы не можете скачивать файлы