BitTorrentTracker PerecTracker.org
BitTorrentTracker PerecTracker.org
    
Регистрация  ·  Вход
 
 · 
Забыли пароль?

  • Два Фёдора (Марлен Хуциев) [1958, Мелодрама, SATRip]

    Ответить на тему
     
    Автор Сообщение

    Light

    Создавать темы 30-Апр-2015 21:36

           

    [Цитировать]

    Два Фёдора
    Жанр: Мелодрама
    Страна: СССР
    Студия: Одесская киностудия
    Год выпуска: 1958
    Продолжительность: 01:24:02.040 (126051 frames)
    Режиссёр: Марлен Хуциев
    В ролях:
    Василий Шукшин … Фёдор-большой
    Николай Чурсин … Федор-маленький
    Тамара Сёмина … Наташа, «Аистиха»
    Юра Елин … Сеня Хрипатый
    Мария Шаманская … соседка
    Иван Полетаев … Иван Никанорыч
    Александр Каменко-Александровский … киоскер
    Николай Ключнев … парень на танцах
    Дмитрий Иванов … эпизод
    Николай Лопатников … эпизод
    К.Забашта … эпизод
    Описание: Окончилась Отечественная война. Возвращаясь домой, Фёдор большой (Василий Шукшин) встречает мальчишку-беспризорника Фёдора малого. Они решают жить вместе. Фёдор большой строит дома, Фёдор малый учится и управляется по хозяйству. Каждый вечер они отправляются гулять по улицам, вместе ходят в кино. Но вот в жизни Фёдора большого появляется Наташа (Тамара Сёмина), и его отношения с мальчиком разлаживаются. Став женой Фёдора большого, Наташа всячески старается снискать любовь мальчугана. Но тот отвечает неприязнью, а однажды, доведенный ревностью до отчаяния, отрезает у спящей Наташи волосы. Потом Фёдор малый убегает из дому. После долгих поисков и волнений супруги находят его в недостроенном доме. Здесь, наконец, происходит примирение...
    Дополнительная информация: Релиз:
    Автор рипа: pmv
    Большое спасибо за:
    - Исходник DVB в формате MPEG-PS (http://perectracker.org/viewtopic.php?t=4996299) со спутника с ТК «Ностальгия» - a&s
    IMDb = 6,8/10 from 75 users -
    Кинопоиск = 7.824 (974) -
    * Первые роли в кино Василия Шукшина и Тамары Сёминой.
    * Фильм стал одним из лидеров проката в 1958 году - 20,4 млн зрителей.
    ПРОСЬБА к СКАЧАВШИМ. НЕ УХОДИТЕ С РАЗДАЧИ, ПОМОГИТЕ ДРУГИМ СКАЧАТЬ!!!
    Качество видео: SATRip
    Формат видео: AVI
    Видео: 720x528 (1.36:1), 25 fps, XviD build 73 ~2206 kbps avg, 0.23 bit/pixel
    Аудио: 48 kHz, MPEG Layer 3, 2 ch, ~128.00 kbps avg

    MediaInfo

    General
    Complete name : D:\torrents\два фёдора (1958).avi
    Format : AVI
    Format/Info : Audio Video Interleave
    File size : 1.38 GiB
    Duration : 1h 24mn
    Overall bit rate : 2 344 Kbps
    Writing application : VirtualDubMod 1.5.10.3 | www.virtualdub-fr.org || (build 2550/release)
    Writing library : VirtualDubMod build 2550/release
    Video
    ID : 0
    Format : MPEG-4 Visual
    Format profile : Advanced Simple@L5
    Format settings, BVOP : Yes
    Format settings, QPel : No
    Format settings, GMC : No warppoints
    Format settings, Matrix : Default (H.263)
    Codec ID : XVID
    Codec ID/Hint : XviD
    Duration : 1h 24mn
    Bit rate : 2 207 Kbps
    Width : 720 pixels
    Height : 528 pixels
    Display aspect ratio : 4:3
    Frame rate : 25.000 fps
    Resolution : 8 bits
    Colorimetry : 4:2:0
    Scan type : Progressive
    Bits/(Pixel*Frame) : 0.232
    Stream size : 1.30 GiB (94%)
    Writing library : XviD 73
    Audio
    ID : 1
    Format : MPEG Audio
    Format version : Version 1
    Format profile : Layer 3
    Format_Settings_Mode : Joint stereo
    Codec ID : 55
    Codec ID/Hint : MP3
    Duration : 1h 24mn
    Bit rate mode : Constant
    Bit rate : 128 Kbps
    Channel(s) : 2 channels
    Sampling rate : 48.0 KHz
    Stream size : 76.9 MiB (5%)
    Alignment : Aligned on interleaves
    Interleave, duration : 40 ms (1.00 video frame)
    Interleave, preload duration : 504 ms

    Скриншоты

    Сравнение с раздачей Мищенков от 21-Декабря-2008 14:40

    Мищенков, DVDRip, 720 x 544, 1.37 Gb < > CaCa48, 720 x 528, 1.38 Gb
    http://perectracker.org/viewtopic.php?t=1366274
    http://screenshotcomparison.com/comparison/124644/
    МОИ РАЗДАЧИ НА РУТРЕКЕРЕ: http://perectracker.org/tracker.php?rid=27390064
    Скачать .torrent

    Скачать торрент-файл бесплатно и на максимальной скорости!

    Как скачивать? · Что такое торрент? · Рейтинг и ограничения

    !ВНИМАНИЕ!
    Сайт не распространяет и не хранит электронные версии произведений, а занимается лишь лишь предоставлением доступа к создаваемому пользователями каталогу ссылок на торрент-файлы, которые содержат только списки хеш-сумм, убедительная просьба с жалобами обращаться напрямую к пользователю. Файлы для обмена на трекере предоставлены пользователями сайта, и администрация не несёт ответственности за их содержание. Просьба не заливать файлы, защищенные авторскими правами, а также файлы нелегального содержания!


    _________________
    [Профиль] [ЛС]
    Показать сообщения:    
    Ответить на тему

    Текущее время: Сегодня, в 11:00

    Часовой пояс: GMT + 2



    Вы не можете начинать темы
    Вы не можете отвечать на сообщения
    Вы не можете редактировать свои сообщения
    Вы не можете удалять свои сообщения
    Вы не можете голосовать в опросах
    Вы не можете прикреплять файлы к сообщениям
    Вы не можете скачивать файлы