BitTorrentTracker PerecTracker.org
BitTorrentTracker PerecTracker.org
    
Регистрация  ·  Вход
 
 · 
Забыли пароль?

  • Барашек Шон / Shaun the Sheep Movie (Марк Бертон / Mark Burton) [2015, мультфильм, комедия, приключения, семейный, WEB-DLRip]

    Ответить на тему
     
    Автор Сообщение

    rechyn

    Создавать темы 30-Апр-2015 09:00

           

    [Цитировать]

    Барашек Шон / Shaun the Sheep Movie
    Страна: Великобритания, Франция
    Жанр: мультфильм, комедия, приключения, семейный
    Продолжительность: 01:21:06
    Год выпуска: 2015
    Перевод: Не требуется
    Русские субтитры: нет
    Режиссёр: Марк Бертон / Mark Burton
    Роли озвучивали: Джастин Флетчер, Джон Шпаркс, Омид Джалили, Ричард Веббер, Кейт Харбор, Тим Хэндс, Энди Найман, Саймон Гринхолл, Эмма Тейт, Джек Полсон
    Описание: Мирная жизнь маленькой овцефермы оказывается под угрозой, когда в результате очередной проказы неутомимого Барашка Шона хозяин фермы попадает в большой город. Вдоволь навеселившись полной свободой и безнаказанностью, Шон и остальное стадо барашков начинают волноваться за Фермера и решают отправиться на его спасение. Замаскировавшись под людей, они едут в большой город, где их ждет самое весёлое и эпическое приключение всей жизни.
    Семпл: http://sendfile.su/1113328
    Качество: WEB-DLRip
    Формат: AVI
    Видео: 720x384 (1.88:1), 25 fps, XviD build 50 ~2005 kbps avg, 0.29 bit/pixel
    Аудио: 48 kHz, AC3 Dolby Digital, 3/2 (L,C,R,l,r) + LFE ch, ~384 kbps
    Субтитры: отсутствуют

    Подробные технические данные

    ОбщееПолное имя : E:\MOVIES\baPashek.sh0H.2015.D.WEB-DLRip.1400Mb.aviФормат : AVIФормат/Информация : Audio Video InterleaveРазмер файла : 1,37 ГбайтПродолжительность : 1 ч. 21 м.Общий поток : 2400 Кбит/секПрограмма кодирования : VirtualDubMod 1.5.10.3 | www.virtualdub-fr.org || (build 2550/release)Библиотека кодирования : VirtualDubMod build 2550/release
    ВидеоИдентификатор : 0Формат : MPEG-4 VisualПрофиль формата : Advanced Simple@L5Параметр BVOP формата : 2Параметр QPel формата : НетПараметр GMC формата : Без точки переходаПараметр матрицы формата : Default (MPEG)Идентификатор кодека : XVIDИдентификатор кодека/Подсказка : XviDПродолжительность : 1 ч. 21 м.Битрейт : 2006 Кбит/секШирина : 720 пикселейВысота : 384 пикселяСоотношение сторон : 1,85:1Частота кадров : 25,000 кадров/секЦветовое пространство : YUVСубдискретизация насыщенности : 4:2:0Битовая глубина : 8 битТип развёртки : ПрогрессивнаяМетод сжатия : С потерямиБит/(Пиксели*Кадры) : 0.290Размер потока : 1,14 Гбайт (84%)Библиотека кодирования : XviD 1.2.1 (UTC 2008-12-04)
    АудиоИдентификатор : 1Формат : AC-3Формат/Информация : Audio Coding 3Расширение режима : CM (complete main)Параметр Endianness формата : BigИдентификатор кодека : 2000Продолжительность : 1 ч. 21 м.Вид битрейта : ПостоянныйБитрейт : 384 Кбит/секКаналы : 6 каналовРасположение каналов : Front: L C R, Side: L R, LFEЧастота : 48,0 КГцБитовая глубина : 16 битМетод сжатия : С потерямиРазмер потока : 224 Мбайт (16%)Выравнивание : Разделение по промежуткамПродолжительность промежутка : 40 мс. (1,00 видеокадр)Время предзагрузки промежутка : 500 мс.

    Скриншоты

    Скачать .torrent

    Скачать торрент-файл бесплатно и на максимальной скорости!

    Как скачивать? · Что такое торрент? · Рейтинг и ограничения

    !ВНИМАНИЕ!
    Сайт не распространяет и не хранит электронные версии произведений, а занимается лишь лишь предоставлением доступа к создаваемому пользователями каталогу ссылок на торрент-файлы, которые содержат только списки хеш-сумм, убедительная просьба с жалобами обращаться напрямую к пользователю. Файлы для обмена на трекере предоставлены пользователями сайта, и администрация не несёт ответственности за их содержание. Просьба не заливать файлы, защищенные авторскими правами, а также файлы нелегального содержания!


    _________________
    [Профиль] [ЛС]
    Показать сообщения:    
    Ответить на тему

    Текущее время: Сегодня, в 20:14

    Часовой пояс: GMT + 2



    Вы не можете начинать темы
    Вы не можете отвечать на сообщения
    Вы не можете редактировать свои сообщения
    Вы не можете удалять свои сообщения
    Вы не можете голосовать в опросах
    Вы не можете прикреплять файлы к сообщениям
    Вы не можете скачивать файлы