BitTorrentTracker PerecTracker.org
BitTorrentTracker PerecTracker.org
    
Регистрация  ·  Вход
 
 · 
Забыли пароль?

  • Kingsman: Секретная служба / Kingsman: The Secret Service (Мэттью Вон / Matthew Vaughn) [2014, Великобритания, боевик, комедия, криминал, приключения, HDTVRip] Dub

    Ответить на тему
     
    Автор Сообщение

    Light

    Создавать темы 30-Апр-2015 09:00

           

    [Цитировать]

    Kingsman: Секретная служба / Kingsman: The Secret Service
    Страна: Великобритания
    Жанр: боевик, комедия, криминал, приключения
    Год выпуска: 2014
    Продолжительность: 02:08:15
    Перевод: Дублированный
    Cубтитры: нет
    Оригинальная аудиодорожка: нет
    Примечания: Присутствуют корейские вшитые субтитры
    Режиссер: Мэттью Вон / Matthew Vaughn
    В ролях: Тэрон Эджертон, Колин Фёрт, Сэмюэл Л. Джексон, Марк Стронг, Софи Куксон, Майкл Кейн, София Бутелла, Саманта Янус, Джофф Белл, Марк Хэмилл, Джек Девенпорт, Эдвард Холкрофт, Ханна Альстрём, Бьёрн Флоберг, Джоанна Тейлор, Ричард Брэйк, Кори Джонсон, Адриан Куинтон, Джонно Дэвис, Алекс Николов
    Описание: Эггси — молодой парень, который прошел службу в морской пехоте и имеет очень высокий уровень интеллекта. Он мог бы добиться многого, но выбрал другой путь и стал мелким преступником. Однажды он знакомится с Гарри Хартом, которому его отец когда-то спас жизнь. Этот человек решил сделать все возможное, чтобы сделать жизнь Эггси лучше и открыть для него новые возможности.
    Гарри рассказал ему, что является агентом секретной независимой организации, которая стоит на защите всего мира. Он предложил парню пройти обучение и стать новым членом их команды. Эггси принял предложение Харта, но сможет ли он справиться со всеми испытаниями и оправдать его надежды?..

    Сэмпл: http://sendfile.su/1113343
    Качество видео: HDTVRip
    Формат видео: AVI
    Видео: MPEG4, XviD, 720x400 (16:9), 29.970 fps, 1 386 Kbps (0.161 bit/pixel)
    Аудио: AC-3, 48.0 KHz, 2 ch, 128 Kbps, CBR

    MediaInfo

    Общее
    Полное имя : C:\Users\1\Downloads\K1HgCmaH.CekPetHaya.CLuzhba.2015.Dt.HDTVRip.1400MB.avi
    Формат : AVI
    Формат/Информация : Audio Video Interleave
    Размер файла : 1,37 Гбайт
    Продолжительность : 2 ч. 8 м.
    Общий поток : 1525 Кбит/сек
    Программа кодирования : VirtualDubMod 1.5.10.2 (build 2540/release)
    Библиотека кодирования : VirtualDubMod build 2540/release
    Видео
    Идентификатор : 0
    Формат : MPEG-4 Visual
    Профиль формата : Advanced Simple@L5
    Параметр BVOP формата : 2
    Параметр QPel формата : Нет
    Параметр GMC формата : Без точки перехода
    Параметр матрицы формата : Default (MPEG)
    Идентификатор кодека : XVID
    Идентификатор кодека/Подсказка : XviD
    Продолжительность : 2 ч. 8 м.
    Битрейт : 1386 Кбит/сек
    Ширина : 720 пикселей
    Высота : 400 пикселей
    Соотношение сторон : 16:9
    Частота кадров : 29,970 кадров/сек
    Цветовое пространство : YUV
    Субдискретизация насыщенности : 4:2:0
    Битовая глубина : 8 бит
    Тип развёртки : Прогрессивная
    Метод сжатия : С потерями
    Бит/(Пиксели*Кадры) : 0.161
    Размер потока : 1,24 Гбайт (91%)
    Библиотека кодирования : XviD 1.2.1 (UTC 2008-12-04)
    Аудио
    Идентификатор : 1
    Формат : AC-3
    Формат/Информация : Audio Coding 3
    Расширение режима : CM (complete main)
    Параметр Endianness формата : Big
    Идентификатор кодека : 2000
    Продолжительность : 2 ч. 8 м.
    Вид битрейта : Постоянный
    Битрейт : 128 Кбит/сек
    Каналы : 2 канала
    Расположение каналов : Front: L R
    Частота : 48,0 КГц
    Битовая глубина : 16 бит
    Метод сжатия : С потерями
    Размер потока : 117 Мбайт (8%)
    Выравнивание : Разделение по промежуткам
    Продолжительность промежутка : 33 мс. (1,00 видеокадр)
    Время предзагрузки промежутка : 500 мс.

    Скриншоты

    Скачать .torrent

    Скачать торрент-файл бесплатно и на максимальной скорости!

    Как скачивать? · Что такое торрент? · Рейтинг и ограничения

    !ВНИМАНИЕ!
    Сайт не распространяет и не хранит электронные версии произведений, а занимается лишь лишь предоставлением доступа к создаваемому пользователями каталогу ссылок на торрент-файлы, которые содержат только списки хеш-сумм, убедительная просьба с жалобами обращаться напрямую к пользователю. Файлы для обмена на трекере предоставлены пользователями сайта, и администрация не несёт ответственности за их содержание. Просьба не заливать файлы, защищенные авторскими правами, а также файлы нелегального содержания!


    _________________
    [Профиль] [ЛС]
    Показать сообщения:    
    Ответить на тему

    Текущее время: Сегодня, в 00:10

    Часовой пояс: GMT + 2



    Вы не можете начинать темы
    Вы не можете отвечать на сообщения
    Вы не можете редактировать свои сообщения
    Вы не можете удалять свои сообщения
    Вы не можете голосовать в опросах
    Вы не можете прикреплять файлы к сообщениям
    Вы не можете скачивать файлы