BitTorrentTracker PerecTracker.org
BitTorrentTracker PerecTracker.org
    
Регистрация  ·  Вход
 
 · 
Забыли пароль?

  • Нам некогда ждать (Владимир Акимов) [1971, Драма, киноповесть, VHSRip]

    Ответить на тему
     
    Автор Сообщение

    Light

    Создавать темы 30-Апр-2015 00:36

           

    [Цитировать]

    Нам некогда ждать
    Жанр: Драма, киноповесть
    Год выпуска: 1971
    Продолжительность: 01:13:50

    Режиссёр: Владимир Акимов
    В ролях: Борис Руднев, Юрий Назаров, Нина Кирьякова, Наталья Бондарчук, Виктор Шульгин, Семён Морозов, Владислав Дворжецкий, Игорь Класс, Алексей Панькин, Виктор Авдюшко, Вера Головина, Вера Кузнецова, Леонид Князев, Владимир Акимов, Сергей Чекан, Евгений Шутов
    Описание: Фильм посвящен поэту-комсомольцу Сергею Чекмареву, трагически погибшему в 1933 году.
    Доп. информация: Релиз:, рип vova68
    Другое название: «Страницы». 13 января 2015 года была 105-я годовщина со дня рождения Сергея Ивановича Чекмарёва, чья удивительная жизнь оборвалась в 23 года. Но за столь короткую свою жизнь им свершено много дел и создано столько литературных и дневниковых повествований, что до сих пор, спустя десятилетия, они будоражат умы и сердца людей разных поколений.
    Фильм снимали два оператора-постановщика Александр Николаевич Егоров и Виктор Владимирович Масевич.
    Премьера фильма состоялась 23 июля 1973 года.

    Семпл: http://multi-up.com/1046139
    Качество видео: VHSRip
    Формат видео: AVI

    Видео: 672x288 (2.33:1), 25 fps, DivX Codec 5.x or 6.x ~2227 kbps avg, 0.46 bit/pixel
    Аудио: 48 kHz, MPEG Layer 3, 2 ch, ~128.00 kbps avg

    MediaInfo

    Общее
    Полное имя : D:\Нам некогда ждать.avi
    Формат : AVI
    Формат/Информация : Audio Video Interleave
    Размер файла : 1,22 Гбайт
    Продолжительность : 1 ч. 13 м.
    Общий поток : 2366 Кбит/сек
    Программа кодирования : VirtualDubModRus 1.5.10.2 (build 2540/release)
    Библиотека кодирования : VirtualDubMod build 2540/release
    Видео
    Идентификатор : 0
    Формат : MPEG-4 Visual
    Параметр BVOP формата : 1
    Параметр QPel формата : Нет
    Параметр GMC формата : Без точки перехода
    Параметр матрицы формата : Default (H.263)
    Режим смешивания : Сжатый битовый поток
    Идентификатор кодека : DX50
    Идентификатор кодека/Подсказка : DivX 5
    Продолжительность : 1 ч. 13 м.
    Битрейт : 2228 Кбит/сек
    Ширина : 672 пикселя
    Высота : 288 пикселей
    Соотношение сторон : 2,35:1
    Частота кадров : 25,000 кадров/сек
    Цветовое пространство : YUV
    Субдискретизация насыщенности : 4:2:0
    Битовая глубина : 8 бит
    Тип развёртки : Прогрессивная
    Метод сжатия : С потерями
    Бит/(Пиксели*Кадры) : 0.460
    Размер потока : 1,15 Гбайт (94%)
    Библиотека кодирования : DivX 6.8.5 (UTC 2009-08-20)
    Аудио
    Идентификатор : 1
    Формат : MPEG Audio
    Версия формата : Version 1
    Профиль формата : Layer 3
    Режим : Joint stereo
    Расширение режима : MS Stereo
    Идентификатор кодека : 55
    Идентификатор кодека/Подсказка : MP3
    Продолжительность : 1 ч. 13 м.
    Вид битрейта : Постоянный
    Битрейт : 128 Кбит/сек
    Каналы : 2 канала
    Частота : 48,0 КГц
    Метод сжатия : С потерями
    Размер потока : 67,6 Мбайт (5%)
    Выравнивание : Соединение по промежуткам
    Продолжительность промежутка : 40 мс. (1,00 видеокадр)
    Время предзагрузки промежутка : 504 мс.
    Библиотека кодирования : LAME3.97b
    Настройки программы : -m j -V 4 -q 2 -lowpass 17 -b 128

    Скриншоты

    Скачать .torrent

    Скачать торрент-файл бесплатно и на максимальной скорости!

    Как скачивать? · Что такое торрент? · Рейтинг и ограничения

    !ВНИМАНИЕ!
    Сайт не распространяет и не хранит электронные версии произведений, а занимается лишь лишь предоставлением доступа к создаваемому пользователями каталогу ссылок на торрент-файлы, которые содержат только списки хеш-сумм, убедительная просьба с жалобами обращаться напрямую к пользователю. Файлы для обмена на трекере предоставлены пользователями сайта, и администрация не несёт ответственности за их содержание. Просьба не заливать файлы, защищенные авторскими правами, а также файлы нелегального содержания!


    _________________
    [Профиль] [ЛС]
    Показать сообщения:    
    Ответить на тему

    Текущее время: Сегодня, в 04:26

    Часовой пояс: GMT + 2



    Вы не можете начинать темы
    Вы не можете отвечать на сообщения
    Вы не можете редактировать свои сообщения
    Вы не можете удалять свои сообщения
    Вы не можете голосовать в опросах
    Вы не можете прикреплять файлы к сообщениям
    Вы не можете скачивать файлы