BitTorrentTracker PerecTracker.org
BitTorrentTracker PerecTracker.org
    
Регистрация  ·  Вход
 
 · 
Забыли пароль?

  • Дом крокодилов / Das Haus der Krokodile (Сирил Босс / Cyrill Boss, Филипп Штеннерт / Philipp Stennert) [2012, Германия, семейный, приключения, HDRip] MVO + Original Ger

    Ответить на тему
     
    Автор Сообщение

    Light

    Создавать темы 30-Апр-2015 00:36

           

    [Цитировать]

    Дом крокодилов / Das Haus der Krokodile
    Страна: Германия
    Жанр: Cемейный, приключения
    Год выпуска: 2012
    Продолжительность: 01:34:58
    Перевод: Профессиональный (многоголосый закадровый)
    Cубтитры: нет
    Оригинальная аудиодорожка: немецкий
    Режиссер: Сирил Босс / Cyrill Boss, Филипп Штеннерт / Philipp Stennert
    В ролях: Кристо Феркич / Kristo Ferkic, Йоанна Феркич / Joanna Ferkic, Вийессна Феркич / Vijessna Ferkic, Кристоф Мария Гербст / Christoph Maria Herbst, Гудрун Риттер / Gudrun Ritter, Вальдемар Кобус / Waldemar Kobus, Уве Фридрихсен / Uwe Friedrichsen, Кристиан Фуррер / Christian Furrer, Томас Орнер / Thomas Ohrner-Описание: 11-летний Виктор вместе с семьей переезжает в оставшийся от дяди старый мрачный особняк. Сначала в одной из комнат он видит таинственную фигуру, а затем среди массы необычных старых вещей он находит дневник погибшей много лет назад при загадочных обстоятельствах дочери дяди Сесилии. Очарованный дневником Виктор начинает следовать оставленным в нём ключам, в то время как вокруг него продолжают происходить самые странные вещи.-Качество видео: HDRip
    Формат видео: AVI
    Видео: XviD, 720x304 (2,35:1), 24 fps, ~1600 kbps
    Аудио 1: AC3 Dolby Digital, 48 kHz, 2 ch, 192 kbps (Rus)
    Аудио 2: AC3 Dolby Digital, 48 kHz, 6 ch, 384 kbps (Ger)

    MediaInfo

    ОбщееПолное имя : E:\FILMS\Das Haus der Krokodile 2012 HDRip.aviФормат : AVIФормат/Информация : Audio Video InterleaveРазмер файла : 1,46 ГбайтПродолжительность : 1 ч. 34 м.Общий поток : 2205 Кбит/секПрограмма кодирования : VirtualDubMod 1.5.10.2 (build 2542/release)Библиотека кодирования : VirtualDubMod build 2542/release
    ВидеоИдентификатор : 0Формат : MPEG-4 VisualПрофиль формата : Advanced Simple@L5Параметр BVOP формата : 2Параметр QPel формата : НетПараметр GMC формата : Без точки переходаПараметр матрицы формата : ВыборочнаяИдентификатор кодека : XVIDИдентификатор кодека/Подсказка : XviDПродолжительность : 1 ч. 34 м.Битрейт : 1615 Кбит/секШирина : 720 пикселейВысота : 304 пикселяСоотношение сторон : 2,35:1Частота кадров : 24,000 кадра/секЦветовое пространство : YUVСубдискретизация насыщенности : 4:2:0Битовая глубина : 8 битТип развёртки : ПрогрессивнаяМетод сжатия : С потерямиБит/(Пиксели*Кадры) : 0.307Размер потока : 1,07 Гбайт (73%)Библиотека кодирования : XviD 65
    Аудио #1Идентификатор : 1Формат : AC-3Формат/Информация : Audio Coding 3Расширение режима : CM (complete main)Параметр Endianness формата : BigИдентификатор кодека : 2000Продолжительность : 1 ч. 34 м.Вид битрейта : ПостоянныйБитрейт : 192 Кбит/секКаналы : 2 каналаРасположение каналов : Front: L RЧастота : 48,0 КГцБитовая глубина : 16 битМетод сжатия : С потерямиРазмер потока : 130 Мбайт (9%)Выравнивание : Разделение по промежуткамПродолжительность промежутка : 42 мс. (1,00 видеокадр)Время предзагрузки промежутка : 500 мс.
    Аудио #2Идентификатор : 2Формат : AC-3Формат/Информация : Audio Coding 3Расширение режима : CM (complete main)Параметр Endianness формата : BigИдентификатор кодека : 2000Продолжительность : 1 ч. 34 м.Вид битрейта : ПостоянныйБитрейт : 384 Кбит/секКаналы : 6 каналовРасположение каналов : Front: L C R, Side: L R, LFEЧастота : 48,0 КГцБитовая глубина : 16 битМетод сжатия : С потерямиРазмер потока : 261 Мбайт (17%)Выравнивание : Разделение по промежуткамПродолжительность промежутка : 42 мс. (1,00 видеокадр)Время предзагрузки промежутка : 500 мс.

    Скриншоты



    Скачать .torrent

    Скачать торрент-файл бесплатно и на максимальной скорости!

    Как скачивать? · Что такое торрент? · Рейтинг и ограничения

    !ВНИМАНИЕ!
    Сайт не распространяет и не хранит электронные версии произведений, а занимается лишь лишь предоставлением доступа к создаваемому пользователями каталогу ссылок на торрент-файлы, которые содержат только списки хеш-сумм, убедительная просьба с жалобами обращаться напрямую к пользователю. Файлы для обмена на трекере предоставлены пользователями сайта, и администрация не несёт ответственности за их содержание. Просьба не заливать файлы, защищенные авторскими правами, а также файлы нелегального содержания!


    _________________
    [Профиль] [ЛС]
    Показать сообщения:    
    Ответить на тему

    Текущее время: Сегодня, в 20:39

    Часовой пояс: GMT + 2



    Вы не можете начинать темы
    Вы не можете отвечать на сообщения
    Вы не можете редактировать свои сообщения
    Вы не можете удалять свои сообщения
    Вы не можете голосовать в опросах
    Вы не можете прикреплять файлы к сообщениям
    Вы не можете скачивать файлы