BitTorrentTracker PerecTracker.org
BitTorrentTracker PerecTracker.org
    
Регистрация  ·  Вход
 
 · 
Забыли пароль?

  • Два Фёдора (Марлен Хуциев) [1958, Драма, DVB]

    Ответить на тему
     
    Автор Сообщение

    Light

    Создавать темы 29-Апр-2015 16:12

           

    [Цитировать]

    Два Фёдора
    Жанр: Драма
    Год выпуска: 1958
    Продолжительность: 01:24:02
    Режиссёр: Марлен Хуциев
    В ролях: Василий Шукшин, Коля Чурсин, Тамара Сёмина, Юра Елин, Мария Шаманская, Игорь Полетаев, Александр Александровский, Дмитрий Иванов, Николай Ключнев.
    Описание: Окончилась Отечественная война. Возвращаясь домой, Фёдор большой (Василий Шукшин) встречает мальчишку-беспризорника Фёдора малого. Они решают жить вместе. Фёдор большой строит дома, Фёдор малый учится и управляется по хозяйству. Каждый вечер они отправляются гулять по улицам, вместе ходят в кино. Но вот в жизни Фёдора большого появляется Наташа (Тамара Сёмина), и его отношения с мальчиком разлаживаются. Став женой Фёдора большого, Наташа всячески старается снискать любовь мальчугана. Но тот отвечает неприязнью, а однажды, доведенный ревностью до отчаяния, отрезает у спящей Наташи волосы. Потом Фёдор малый убегает из дому. После долгих поисков и волнений супруги находят его в недостроенном доме. Здесь, наконец, происходит примирение.
    Семпл: http://sendfile.su/1113139
    Качество видео: DVB
    Формат видео: MPEG-PS
    Видео: MPEG2 Video 720x576 (4:3) 25.00fps 3177 Kbps (15000 Kbps)
    Аудио: Русский MPEG Audio 48000Hz stereo 192Kbps

    MediaInfo

    Общее
    Полное имя : E:\Torrents\СВОИ\Два Фёдора.mpg
    Формат : MPEG-PS
    Размер файла : 2,02 Гбайт
    Продолжительность : 1 ч. 24 м.
    Режим общего битрейта : Переменный
    Общий поток : 3438 Кбит/сек
    Библиотека кодирования : (c) 1998-2010 Womble Multimedia, Inc. / MPEG Video Wizard DVD 5.0.0.114 (01/2010) / Jul 5 2010
    Видео
    Идентификатор : 224 (0xE0)
    Формат : MPEG Video
    Версия формата : Version 2
    Профиль формата : Main@Main
    Параметр BVOP формата : Да
    Параметр матрицы формата : Выборочная
    Параметр GOP формата : Variable
    Format_Settings_PictureStructure : Frame
    Продолжительность : 1 ч. 24 м.
    Вид битрейта : Переменный
    Битрейт : 3177 Кбит/сек
    Максимальный битрейт : 15,0 Мбит/сек
    Ширина : 720 пикселей
    Высота : 576 пикселей
    Соотношение сторон : 4:3
    Частота кадров : 25,000 кадров/сек
    Стандарт вещания : PAL
    Цветовое пространство : YUV
    Субдискретизация насыщенности : 4:2:0
    Битовая глубина : 8 бит
    Тип развёртки : Чересстрочная
    Порядок развёртки : Верхнее поле первое
    Метод сжатия : С потерями
    Бит/(Пиксели*Кадры) : 0.306
    Временной код первого кадра : 00:00:00:00
    Оригинал временного кода : Group of pictures header
    Размер потока : 1,87 Гбайт (92%)
    Библиотека кодирования : (c) 1998-2010 Womble Multimedia, Inc. / MPEG Video Wizard DVD 5.0.0.114 (01/2010) / Jul 5 2010
    Аудио
    Идентификатор : 192 (0xC0)
    Формат : MPEG Audio
    Версия формата : Version 1
    Профиль формата : Layer 2
    Продолжительность : 1 ч. 24 м.
    Вид битрейта : Постоянный
    Битрейт : 192 Кбит/сек
    Каналы : 2 канала
    Частота : 48,0 КГц
    Метод сжатия : С потерями
    Размер потока : 115 Мбайт (6%)
    Меню

    Скриншоты


    Скачать .torrent

    Скачать торрент-файл бесплатно и на максимальной скорости!

    Как скачивать? · Что такое торрент? · Рейтинг и ограничения

    !ВНИМАНИЕ!
    Сайт не распространяет и не хранит электронные версии произведений, а занимается лишь лишь предоставлением доступа к создаваемому пользователями каталогу ссылок на торрент-файлы, которые содержат только списки хеш-сумм, убедительная просьба с жалобами обращаться напрямую к пользователю. Файлы для обмена на трекере предоставлены пользователями сайта, и администрация не несёт ответственности за их содержание. Просьба не заливать файлы, защищенные авторскими правами, а также файлы нелегального содержания!


    _________________
    [Профиль] [ЛС]
    Показать сообщения:    
    Ответить на тему

    Текущее время: Сегодня, в 14:33

    Часовой пояс: GMT + 2



    Вы не можете начинать темы
    Вы не можете отвечать на сообщения
    Вы не можете редактировать свои сообщения
    Вы не можете удалять свои сообщения
    Вы не можете голосовать в опросах
    Вы не можете прикреплять файлы к сообщениям
    Вы не можете скачивать файлы