BitTorrentTracker PerecTracker.org
BitTorrentTracker PerecTracker.org
    
Регистрация  ·  Вход
 
 · 
Забыли пароль?

  • Вес слонов / The Weight of Elephants (Дэниэл Боргман / Daniel Borgman) [2013, Дания, Новая Зеландия, Германия, Швеция, драма, DVDRip-AVC] VO + Sub Rus + Original Eng

    Ответить на тему
     
    Автор Сообщение

    Light

    Создавать темы 29-Апр-2015 12:00

           

    [Цитировать]

    Вес слонов / The Weight of Elephants
    Страна: Дания, Новая Зеландия, Германия, Швеция
    Жанр: драма
    Год выпуска: 2013
    Продолжительность: 01:23:38
    Перевод: Одноголосый закадровый
    Cубтитры: русские
    Оригинальная аудиодорожка: английский
    Режиссер: Дэниэл Боргман / Daniel Borgman
    В ролях: Демос Мерфи / Demos Murphy, Angelina Cottrell, Anna Hewlett, Bree Peters, Sophie Roberts, Matthew Sunderland, Catherine Wilkin, Steven Woller
    Описание: Мать бросила Адриана, когда он был еще совсем маленьким, он живет с бабушкой и хронически депрессивным дядей, в школе его презирают за слабохарактерность и постоянно над ним издеваются. По соседству поселяется новая семья, и у Адриана устанавливаются теплые отношения с их дочерью Николь. Когда обнаруживают пропажу троих детей, мальчику хочется разгадать эту тайну.
    Сэмпл: http://multi-up.com/1046046
    Качество видео: DVDRip-AVC
    Формат видео: MKV
    Видео: AVC at 2000 Кбит/сек : 720 x 320 (2.250) at 25.000 fps
    Аудио 1: MPEG Audio at 192 Кбит/сек : 2 канала, 48,0 КГц Language : ru
    Аудио 2: MPEG Audio at 192 Кбит/сек : 2 канала, 48,0 КГц Language : en
    Формат субтитров: softsub (SRT)
    Доп. информация о субтитрах: Русские внешние (kidkong)

    MediaInfo

    Общее
    Уникальный идентификатор : 251488812766654886642039358632075453727 (0xBD32FBC7DF7B4694A8E1CDE4683BE51F)
    Полное имя : F:\С моей озвучкой\Вес слонов\the.weight.of.elephants.2013 (1).mkv
    Формат : Matroska
    Версия формата : Version 4 / Version 2
    Размер файла : 1,40 Гбайт
    Продолжительность : 1 ч. 23 м.
    Общий поток : 2395 Кбит/сек
    Дата кодирования : UTC 2015-04-28 19:46:33
    Программа кодирования : mkvmerge v6.1.0 ('Old Devil') built on Mar 4 2013 09:10:42
    Библиотека кодирования : libebml v1.3.0 + libmatroska v1.4.0
    DURATION : 01:23:38.376000000
    NUMBER_OF_FRAMES : 209063
    NUMBER_OF_BYTES : 120420288
    _STATISTICS_WRITING_APP : mkvmerge v7.6.0 ('Garden of Dreams') 64bit built on Feb 8 2015 13:04:34
    _STATISTICS_WRITING_DATE_UTC : 2015-02-15 06:36:41
    _STATISTICS_TAGS : BPS DURATION NUMBER_OF_FRAMES NUMBER_OF_BYTES
    Видео
    Идентификатор : 1
    Формат : AVC
    Формат/Информация : Advanced Video Codec
    Профиль формата : Baseline@L3.0
    Параметр CABAC формата : Нет
    Параметр ReFrames формата : 2 кадра
    Идентификатор кодека : V_MPEG4/ISO/AVC
    Продолжительность : 1 ч. 23 м.
    Битрейт : 2000 Кбит/сек
    Ширина : 720 пикселей
    Высота : 320 пикселей
    Соотношение сторон : 2,25:1
    Режим частоты кадров : Постоянный
    Частота кадров : 25,000 кадров/сек
    Цветовое пространство : YUV
    Субдискретизация насыщенности : 4:2:0
    Битовая глубина : 8 бит
    Тип развёртки : Прогрессивная
    Бит/(Пиксели*Кадры) : 0.347
    Размер потока : 1,15 Гбайт (82%)
    Библиотека кодирования : x264 core 135
    Настройки программы : cabac=0 / ref=2 / deblock=1:0:0 / analyse=0x1:0x111 / me=hex / subme=4 / psy=1 / psy_rd=1.00:0.00 / mixed_ref=0 / me_range=16 / chroma_me=1 / trellis=1 / 8x8dct=0 / cqm=0 / deadzone=21,11 / fast_pskip=1 / chroma_qp_offset=0 / threads=3 / lookahead_threads=1 / sliced_threads=0 / nr=0 / decimate=1 / interlaced=0 / bluray_compat=0 / constrained_intra=0 / bframes=0 / weightp=0 / keyint=250 / keyint_min=25 / scenecut=40 / intra_refresh=0 / rc_lookahead=20 / rc=abr / mbtree=1 / bitrate=2000 / ratetol=1.0 / qcomp=0.60 / qpmin=0 / qpmax=69 / qpstep=4 / ip_ratio=1.40 / aq=1:1.00
    Default : Да
    Forced : Нет
    Аудио #1
    Идентификатор : 2
    Формат : MPEG Audio
    Версия формата : Version 1
    Профиль формата : Layer 3
    Режим : Joint stereo
    Расширение режима : MS Stereo
    Идентификатор кодека : A_MPEG/L3
    Идентификатор кодека/Подсказка : MP3
    Продолжительность : 1 ч. 23 м.
    Вид битрейта : Постоянный
    Битрейт : 192 Кбит/сек
    Каналы : 2 канала
    Частота : 48,0 КГц
    Метод сжатия : С потерями
    Размер потока : 115 Мбайт (8%)
    Библиотека кодирования : LAME3.96
    Язык : Russian
    Default : Нет
    Forced : Нет
    Аудио #2
    Идентификатор : 3
    Формат : MPEG Audio
    Версия формата : Version 1
    Профиль формата : Layer 3
    Режим : Joint stereo
    Расширение режима : MS Stereo
    Идентификатор кодека : A_MPEG/L3
    Идентификатор кодека/Подсказка : MP3
    Продолжительность : 1 ч. 23 м.
    Вид битрейта : Постоянный
    Битрейт : 192 Кбит/сек
    Каналы : 2 канала
    Частота : 48,0 КГц
    Метод сжатия : С потерями
    Размер потока : 115 Мбайт (8%)
    Язык : English
    Default : Нет
    Forced : Нет

    Скриншоты

    Скачать .torrent

    Скачать торрент-файл бесплатно и на максимальной скорости!

    Как скачивать? · Что такое торрент? · Рейтинг и ограничения

    !ВНИМАНИЕ!
    Сайт не распространяет и не хранит электронные версии произведений, а занимается лишь лишь предоставлением доступа к создаваемому пользователями каталогу ссылок на торрент-файлы, которые содержат только списки хеш-сумм, убедительная просьба с жалобами обращаться напрямую к пользователю. Файлы для обмена на трекере предоставлены пользователями сайта, и администрация не несёт ответственности за их содержание. Просьба не заливать файлы, защищенные авторскими правами, а также файлы нелегального содержания!


    _________________
    [Профиль] [ЛС]
    Показать сообщения:    
    Ответить на тему

    Текущее время: Сегодня, в 14:43

    Часовой пояс: GMT + 2



    Вы не можете начинать темы
    Вы не можете отвечать на сообщения
    Вы не можете редактировать свои сообщения
    Вы не можете удалять свои сообщения
    Вы не можете голосовать в опросах
    Вы не можете прикреплять файлы к сообщениям
    Вы не можете скачивать файлы