BitTorrentTracker PerecTracker.org
BitTorrentTracker PerecTracker.org
    
Регистрация  ·  Вход
 
 · 
Забыли пароль?

  • Из темноты / Out Of The Dark (Йуис Килес / Lluís Quílez) [2014, Колумбия, Испания, США, Ужасы, триллер, WEB-DLRip] DVO (den904 & DeadSno) + Original Eng

    Ответить на тему
     
    Автор Сообщение

    Light

    Создавать темы 29-Апр-2015 12:00

           

    [Цитировать]

    Из темноты / Out Of The Dark
    Страна: Колумбия, Испания, США
    Жанр: Ужасы, триллер
    Год выпуска: 2014
    Продолжительность: 01:33:20-Перевод: Любительский (двухголосый закадровый) den904 & DeadSno
    Cубтитры: нет
    Оригинальная аудиодорожка: английский-Режиссер: Йуис Килес / Lluís Quílez-В ролях: Пикси Дейвис, Алехандро Ферт, Стивен Ри, Скотт Спидман, Джулия Стайлз-Описание: Пара со своей дочерью переезжают в Колумбию, чтобы заняться делами их семейного обрабатывающего предприятия, но скоро они узнают, что их новый дом населен приведениями…-Сэмпл / КиноПоиск / IMDb-Качество видео: WEB-DLRip
    Формат видео: AVI-Видео: MPEG-4 Visual at 1125 Кбит/сек, 720 x 304 (2.368) at 25.000 fps
    Аудио 1: Rus AC-3 at 384 Кбит/сек, 6 каналов, 48,0 КГц
    Аудио 2: Eng AC-3 at 384 Кбит/сек, 6 каналов, 48,0 КГц

    MediaInfo

    Общее
    Полное имя : C:\Kino\Rutracker-Razdachi\Out Of The Dark (2014)WEB-DLRip DD5.1.Rus.Eng.avi
    Формат : AVI
    Формат/Информация : Audio Video Interleave
    Размер файла : 1,24 Гбайт
    Продолжительность : 1 ч. 33 м.
    Общий поток : 1908 Кбит/сек
    Программа кодирования : VirtualDubMod 1.5.10.2 (build 2540/release)
    Библиотека кодирования : VirtualDubMod build 2540/release
    Видео
    Идентификатор : 0
    Формат : MPEG-4 Visual
    Профиль формата : Simple@L3
    Параметр BVOP формата : Нет
    Параметр QPel формата : Нет
    Параметр GMC формата : Без точки перехода
    Параметр матрицы формата : Выборочная
    Идентификатор кодека : XVID
    Идентификатор кодека/Подсказка : XviD
    Продолжительность : 1 ч. 33 м.
    Битрейт : 1125 Кбит/сек
    Ширина : 720 пикселей
    Высота : 304 пикселя
    Соотношение сторон : 2,35:1
    Частота кадров : 25,000 кадров/сек
    Цветовое пространство : YUV
    Субдискретизация насыщенности : 4:2:0
    Битовая глубина : 8 бит
    Тип развёртки : Прогрессивная
    Метод сжатия : С потерями
    Бит/(Пиксели*Кадры) : 0.206
    Размер потока : 751 Мбайт (59%)
    Библиотека кодирования : XviD 1.0.0 RC4 (Hola) (UTC 2004-04-05)
    Аудио #1
    Идентификатор : 1
    Формат : AC-3
    Формат/Информация : Audio Coding 3
    Расширение режима : CM (complete main)
    Параметр Endianness формата : Big
    Идентификатор кодека : 2000
    Продолжительность : 1 ч. 33 м.
    Вид битрейта : Постоянный
    Битрейт : 384 Кбит/сек
    Каналы : 6 каналов
    Расположение каналов : Front: L C R, Side: L R, LFE
    Частота : 48,0 КГц
    Битовая глубина : 16 бит
    Метод сжатия : С потерями
    Размер потока : 256 Мбайт (20%)
    Выравнивание : Разделение по промежуткам
    Продолжительность промежутка : 40 мс. (1,00 видеокадр)
    Время предзагрузки промежутка : 500 мс.
    Аудио #2
    Идентификатор : 2
    Формат : AC-3
    Формат/Информация : Audio Coding 3
    Расширение режима : CM (complete main)
    Параметр Endianness формата : Big
    Идентификатор кодека : 2000
    Продолжительность : 1 ч. 33 м.
    Вид битрейта : Постоянный
    Битрейт : 384 Кбит/сек
    Каналы : 6 каналов
    Расположение каналов : Front: L C R, Side: L R, LFE
    Частота : 48,0 КГц
    Битовая глубина : 16 бит
    Метод сжатия : С потерями
    Размер потока : 256 Мбайт (20%)
    Выравнивание : Разделение по промежуткам
    Продолжительность промежутка : 40 мс. (1,00 видеокадр)
    Время предзагрузки промежутка : 500 мс.

    Скриншоты

    Скачать .torrent

    Скачать торрент-файл бесплатно и на максимальной скорости!

    Как скачивать? · Что такое торрент? · Рейтинг и ограничения

    !ВНИМАНИЕ!
    Сайт не распространяет и не хранит электронные версии произведений, а занимается лишь лишь предоставлением доступа к создаваемому пользователями каталогу ссылок на торрент-файлы, которые содержат только списки хеш-сумм, убедительная просьба с жалобами обращаться напрямую к пользователю. Файлы для обмена на трекере предоставлены пользователями сайта, и администрация не несёт ответственности за их содержание. Просьба не заливать файлы, защищенные авторскими правами, а также файлы нелегального содержания!


    _________________
    [Профиль] [ЛС]
    Показать сообщения:    
    Ответить на тему

    Текущее время: Сегодня, в 14:38

    Часовой пояс: GMT + 2



    Вы не можете начинать темы
    Вы не можете отвечать на сообщения
    Вы не можете редактировать свои сообщения
    Вы не можете удалять свои сообщения
    Вы не можете голосовать в опросах
    Вы не можете прикреплять файлы к сообщениям
    Вы не можете скачивать файлы