BitTorrentTracker PerecTracker.org
BitTorrentTracker PerecTracker.org
    
Регистрация  ·  Вход
 
 · 
Забыли пароль?

  • [ATV3] Пирамида / The Pyramid (Грегори Левассёр / Grégory Levasseur ) [2014, США, Ужасы, BDRip, HD (1080p)] DUB + Original + sub (rus, eng, ukr)

    Ответить на тему
     
    Автор Сообщение

    rechyn

    Создавать темы 29-Апр-2015 03:36

           

    [Цитировать]

    Пирамида / The Pyramid
    «Живым не уйти»
    4.680 / 10 4.90 / 10
    -Год выпуска: 2014
    Страна: США
    Жанр: Ужасы
    Продолжительность: 01:28:52
    Перевод: Дублированный (iTunes Russia)
    Оригинальная аудиодорожка: Есть
    Cубтитры: Русские форсированные, Русские, Английские, Украинские
    Режиссёр: Грегори Левассёр
    Сценарий: Дэниэл Мирсанд, Ник Саймон
    Продюсер: Александр Ажа, Марк Кантон, Чади Эли Маттар
    Композитор: Нима Фахрара
    Художник: Марко Трентини, Алессандро Сантуччи, Эссуси Закия
    Монтаж: Скотт С. Сильвер
    В ролях: Эшли Хиншоу, Дэнис О’Хэр, Джеймс Бакли, Криста Никола, Амир Камиаб, Файкал Аттугуй, Филип Шелли, Аит Хаму Амин, Омар Бенбрахим, Джозеф Бедделем
    Сборы в США: $2 756 333
    Сборы в мире: + $11 109 102 = $13 865 435
    Сборы в России: $2 537 159
    Мировая премьера: 4 декабря 2014
    Премьера (РФ): 4 декабря 2014, «Двадцатый Век Фокс СНГ»
    Описание: Группа американских археологов раскапывает древнюю пирамиду, расположенную глубоко под египетской пустыней. Когда они начинают исследовать внутренние помещения пирамиды, то безнадежно теряются в ее бесконечных темных катакомбах.-Качество исходника: HDClub, Пирамида / The Pyramid (2014) 1080p BD-Remux
    Качество: BDRip
    Тип: HD (1080p)
    Контейнер: M4V
    Видео: H.264, 1920x800, 2.40:1, 8 000 Kbps, 23.976 fps
    Аудио 1: Русский/Дублированный (iTunes Russia), AAC / 2.0 / 156 Kbps / 48.0 KHz
    Аудио 2: Английский/Оригинальная дорожка , AAC / 2.0 / 157 Kbps / 48.0 KHz
    Аудио 3: Украинский/Дублированный (iTunes Russia), AAC / 2.0 / 159 Kbps / 48.0 KHz
    Аудио 4: Русский/Дублированный (iTunes Russia), AC-3 / 5.1 / 384 Kbps / 48.0 KHz
    Аудио 5: Английский/Оригинальная дорожка , AC-3 / 5.1 / 640 Kbps / 48.0 KHz
    Субтитры 1: Русские форсированные
    Субтитры 2: Русские полные
    Субтитры 3: Английские полные
    Субтитры 4: Украинские полные
    -

    iTunes Meta Tags

    Sort Name: Pyramid
    XID: Apple:vendor_id:KP-2014-749507
    contentID: 940823986
    Copyright: © 2014 Twentieth Century Fox Film Corporation. All rights reserved.
    Screenwriters: Дэниэл Мирсанд, Ник Саймон
    Producers: Александр Ажа, Марк Кантон, Чади Эли Маттар
    Director: Грегори Левассёр
    Cast: Эшли Хиншоу, Дэнис О’Хэйр, Джеймс Бакли, Криста Никола, Амир Камиаб, Файкал Аттугуй, Филип Шелли, Аит Хаму Амин, Омар Бенбрахим, Джозеф Бедделем, Вероника Саркисова, Никита Прозоровский, Михаил Тихонов, Татьяна Шитова
    Studio: 20th Century Fox
    Rating: 11
    Long Description: Группа американских археологов раскапывает древнюю пирамиду, расположенную глубоко под египетской пустыней. Когда они начинают исследовать внутренние помещения пирамиды, то безнадежно теряются в ее бесконечных темных катакомбах.
    Description: Группа американских археологов раскапывает древнюю пирамиду, расположенную глубоко под египетской пустыней. Когда они начинают исследовать внутренние помещения пирамиды, то безнадежно теряются в ее бесконечных темных катакомбах.
    Release Date: 2014-12-04T08:00:00Z
    Genre: Horror
    Artist: Gregory Levasseur
    Name: The Pyramid

    MediaInfo

    General
    Complete name                            : /Users/imac/HandBrake/The Pyramid (1080p HD).m4v
    Format                                   : MPEG-4
    Codec ID                                 : M4V
    File size                                : 5.90 GiB
    Duration                                 : 1h 28mn
    Overall bit rate mode                    : Variable
    Overall bit rate                         : 9 498 Kbps
    Movie name                               : The Pyramid
    Performer                                : Gregory Levasseur
    Genre                                    : Horror
    Recorded date                            : UTC 2014-12-04 08:00:00
    Encoded date                             : UTC 2015-04-28 21:58:51
    Tagged date                              : UTC 2015-04-28 22:17:26
    Copyright                                : © 2014 Twentieth Century Fox Film Corporation. All rights reserved.
    Cover                                    : Yes
    sonm                                     : Pyramid
    desc                                     : Группа американских археологов раскапывает древнюю пирамиду, расположенную глубоко под египетской пустыней. Когда они начинают исследовать внутренние помещения пирамиды, то безнадежно теряются в ее бесконечных темных катакомбах.
    ldes                                     : Группа американских археологов раскапывает древнюю пирамиду, расположенную глубоко под египетской пустыней. Когда они начинают исследовать внутренние помещения пирамиды, то безнадежно теряются в ее бесконечных темных катакомбах.
    hdvd                                     : 2
    stik                                     : 9
    rtng                                     : 0
    cnID                                     : 940823986
    xid                                      : Apple:vendor_id:2014-749507
    iTunEXTC                                 : mpaa|R|400|
    iTunMOVI                                 : <?xml version=\"1.0\" encoding=\"UTF-8\"?> / <!DOCTYPE plist PUBLIC \"-//Apple//DTD PLIST 1.0//EN\" \"http://anonym.to/?http://www.apple.com/DTDs/PropertyList-1.0.dtd\"> / <plist version=\"1.0\"> / <dict> /  <key>cast</key> /  <array> /   <dict> /    <key>name</key> /    <string>Эшли Хиншоу</string> /   </dict> /   <dict> /    <key>name</key> /    <string>Дэнис О’Хэйр</string> /   </dict> /   <dict> /    <key>name</key> /    <string>Джеймс Бакли</string> /   </dict> /   <dict> /    <key>name</key> /    <string>Криста Никола</string> /   </dict> /   <dict> /    <key>name</key> /    <string>Амир Камиаб</string> /   </dict> /   <dict> /    <key>name</key> /    <string>Файкал Аттугуй</string> /   </dict> /   <dict> /    <key>name</key> /    <string>Филип Шелли</string> /   </dict> /   <dict> /    <key>name</key> /    <string>Аит Хаму Амин</string> /   </dict> /   <dict> /    <key>name</key> /    <string>Омар Бенбрахим</string> /   </dict> /   <dict> /    <key>name</key> /    <string>Джозеф Бедделем</string> /   </dict> /   <dict> /    <key>name</key> /    <string>Вероника Саркисова</string> /   </dict> /   <dict> /    <key>name</key> /    <string>Никита Прозоровский</string> /   </dict> /   <dict> /    <key>name</key> /    <string>Михаил Тихонов</string> /   </dict> /   <dict> /    <key>name</key> /    <string>Татьяна Шитова</string> /   </dict> /  </array> /  <key>directors</key> /  <array> /   <dict> /    <key>name</key> /    <string>Грегори Левассёр</string> /   </dict> /  </array> /  <key>producers</key> /  <array> /   <dict> /    <key>name</key> /    <string>Александр Ажа</string> /   </dict> /   <dict> /    <key>name</key> /    <string>Марк Кантон</string> /   </dict> /   <dict> /    <key>name</key> /    <string>Чади Эли Маттар</string> /   </dict> /  </array> /  <key>screenwriters</key> /  <array> /   <dict> /    <key>name</key> /    <string>Дэниэл Мирсанд</string> /   </dict> /   <dict> /    <key>name</key> /    <string>Ник Саймон</string> /   </dict> /  </array> /  <key>studio</key> /  <string>20th Century Fox </string> / </dict> / </plist>
    Video #1
    ID                                       : 1
    Format                                   : AVC
    Format/Info                              : Advanced Video Codec
    Format profile                           : High@L4.0
    Format settings, CABAC                   : Yes
    Format settings, ReFrames                : 4 frames
    Codec ID                                 : avc1
    Codec ID/Info                            : Advanced Video Coding
    Duration                                 : 1h 28mn
    Bit rate mode                            : Variable
    Bit rate                                 : 8 000 Kbps
    Width                                    : 1 920 pixels
    Height                                   : 800 pixels
    Display aspect ratio                     : 2.40:1
    Frame rate mode                          : Variable
    Frame rate                               : 23.976 fps
    Minimum frame rate                       : 23.974 fps
    Maximum frame rate                       : 23.981 fps
    Color space                              : YUV
    Chroma subsampling                       : 4:2:0
    Bit depth                                : 8 bits
    Scan type                                : Progressive
    Bits/(Pixel*Frame)                       : 0.217
    Stream size                              : 4.96 GiB (84%)
    Writing library                          : x264 core 142 r2479 dd79a61
    Encoding settings                        : cabac=1 / ref=4 / deblock=1:-3:-2 / analyse=0x3:0x133 / me=umh / subme=10 / psy=1 / psy_rd=1.00:0.25 / mixed_ref=1 / me_range=32 / chroma_me=1 / trellis=2 / 8x8dct=1 / cqm=0 / deadzone=21,11 / fast_pskip=1 / chroma_qp_offset=-4 / threads=36 / lookahead_threads=6 / sliced_threads=0 / nr=0 / decimate=0 / interlaced=0 / bluray_compat=0 / constrained_intra=0 / bframes=16 / b_pyramid=2 / b_adapt=2 / b_bias=0 / direct=3 / weightb=1 / open_gop=0 / weightp=2 / keyint=240 / keyint_min=24 / scenecut=40 / intra_refresh=0 / rc_lookahead=40 / rc=2pass / mbtree=1 / bitrate=8000 / ratetol=1.0 / qcomp=0.60 / qpmin=0 / qpmax=69 / qpstep=4 / cplxblur=20.0 / qblur=0.5 / ip_ratio=1.40 / aq=1:0.80
    Language                                 : English
    Encoded date                             : UTC 2015-04-28 21:58:51
    Tagged date                              : UTC 2015-04-28 21:59:06
    Color primaries                          : BT.709-5, BT.1361, IEC 61966-2-4, SMPTE RP177
    Transfer characteristics                 : BT.709-5, BT.1361
    Matrix coefficients                      : BT.709-5, BT.1361, IEC 61966-2-4 709, SMPTE RP177
    Video #2
    ID                                       : 12
    Format                                   : JPEG
    Codec ID                                 : jpeg
    Duration                                 : 1h 28mn
    Bit rate mode                            : Variable
    Bit rate                                 : 880 bps
    Width                                    : 640 pixels
    Height                                   : 266 pixels
    Display aspect ratio                     : 2.40:1
    Frame rate mode                          : Variable
    Frame rate                               : 0.005 fps
    Minimum frame rate                       : 0.003 fps
    Maximum frame rate                       : 0.011 fps
    Color space                              : YUV
    Chroma subsampling                       : 4:2:0
    Bit depth                                : 8 bits
    Compression mode                         : Lossy
    Bits/(Pixel*Frame)                       : 1.034
    Stream size                              : 602 KiB (0%)
    Language                                 : English
    Encoded date                             : UTC 2015-04-28 21:59:19
    Tagged date                              : UTC 2015-04-28 21:59:20
    Audio #1
    ID                                       : 2
    Format                                   : AAC
    Format/Info                              : Advanced Audio Codec
    Format profile                           : LC
    Codec ID                                 : 40
    Duration                                 : 1h 28mn
    Bit rate mode                            : Variable
    Bit rate                                 : 156 Kbps
    Maximum bit rate                         : 242 Kbps
    Channel(s)                               : 2 channels
    Channel positions                        : Front: L R
    Sampling rate                            : 48.0 KHz
    Compression mode                         : Lossy
    Stream size                              : 99.3 MiB (2%)
    Language                                 : Russian
    Encoded date                             : UTC 2015-04-28 21:58:51
    Tagged date                              : UTC 2015-04-28 21:59:07
    Audio #2
    ID                                       : 3
    Format                                   : AAC
    Format/Info                              : Advanced Audio Codec
    Format profile                           : LC
    Codec ID                                 : 40
    Duration                                 : 1h 28mn
    Bit rate mode                            : Variable
    Bit rate                                 : 157 Kbps
    Maximum bit rate                         : 263 Kbps
    Channel(s)                               : 2 channels
    Channel positions                        : Front: L R
    Sampling rate                            : 48.0 KHz
    Compression mode                         : Lossy
    Stream size                              : 99.8 MiB (2%)
    Language                                 : English
    Encoded date                             : UTC 2015-04-28 21:58:51
    Tagged date                              : UTC 2015-04-28 21:59:07
    Audio #3
    ID                                       : 4
    Format                                   : AAC
    Format/Info                              : Advanced Audio Codec
    Format profile                           : LC
    Codec ID                                 : 40
    Duration                                 : 1h 28mn
    Bit rate mode                            : Variable
    Bit rate                                 : 159 Kbps
    Maximum bit rate                         : 247 Kbps
    Channel(s)                               : 2 channels
    Channel positions                        : Front: L R
    Sampling rate                            : 48.0 KHz
    Compression mode                         : Lossy
    Stream size                              : 101 MiB (2%)
    Language                                 : Ukrainian
    Encoded date                             : UTC 2015-04-28 21:58:51
    Tagged date                              : UTC 2015-04-28 21:59:07
    Audio #4
    ID                                       : 5
    Format                                   : AC-3
    Format/Info                              : Audio Coding 3
    Mode extension                           : CM (complete main)
    Format settings, Endianness              : Big
    Codec ID                                 : ac-3
    Duration                                 : 1h 28mn
    Bit rate mode                            : Constant
    Bit rate                                 : 384 Kbps
    Channel(s)                               : 6 channels
    Channel positions                        : Front: L C R, Side: L R, LFE
    Sampling rate                            : 48.0 KHz
    Bit depth                                : 16 bits
    Compression mode                         : Lossy
    Stream size                              : 244 MiB (4%)
    Language                                 : Russian
    Encoded date                             : UTC 2015-04-28 21:58:51
    Tagged date                              : UTC 2015-04-28 21:58:56
    Audio #5
    ID                                       : 6
    Format                                   : AC-3
    Format/Info                              : Audio Coding 3
    Mode extension                           : CM (complete main)
    Format settings, Endianness              : Big
    Codec ID                                 : ac-3
    Duration                                 : 1h 28mn
    Bit rate mode                            : Constant
    Bit rate                                 : 640 Kbps
    Channel(s)                               : 6 channels
    Channel positions                        : Front: L C R, Side: L R, LFE
    Sampling rate                            : 48.0 KHz
    Bit depth                                : 16 bits
    Compression mode                         : Lossy
    Stream size                              : 407 MiB (7%)
    Language                                 : English
    Encoded date                             : UTC 2015-04-28 21:58:51
    Tagged date                              : UTC 2015-04-28 21:58:56
    Text #1
    ID                                       : 7
    Format                                   : Timed text
    Muxing mode                              : sbtl
    Codec ID                                 : tx3g
    Duration                                 : 1h 28mn
    Bit rate mode                            : Variable
    Bit rate                                 : 1 bps
    Stream size                              : 740 Bytes (0%)
    Language                                 : Russian
    Encoded date                             : UTC 2015-04-28 21:58:51
    Tagged date                              : UTC 2015-04-28 21:58:51
    Text #2
    ID                                       : 8
    Format                                   : Timed text
    Muxing mode                              : sbtl
    Codec ID                                 : tx3g
    Duration                                 : 1h 28mn
    Bit rate mode                            : Variable
    Bit rate                                 : 96 bps
    Stream size                              : 62.4 KiB (0%)
    Language                                 : Russian
    Encoded date                             : UTC 2015-04-28 21:58:51
    Tagged date                              : UTC 2015-04-28 21:58:51
    Text #3
    ID                                       : 9
    Format                                   : Timed text
    Muxing mode                              : sbtl
    Codec ID                                 : tx3g
    Duration                                 : 1h 24mn
    Bit rate mode                            : Variable
    Bit rate                                 : 67 bps
    Stream size                              : 41.1 KiB (0%)
    Language                                 : English
    Encoded date                             : UTC 2015-04-28 21:58:51
    Tagged date                              : UTC 2015-04-28 21:58:51
    Text #4
    ID                                       : 10
    Format                                   : Timed text
    Muxing mode                              : sbtl
    Codec ID                                 : tx3g
    Duration                                 : 1h 28mn
    Bit rate mode                            : Variable
    Bit rate                                 : 98 bps
    Stream size                              : 63.4 KiB (0%)
    Language                                 : Ukrainian
    Encoded date                             : UTC 2015-04-28 21:58:51
    Tagged date                              : UTC 2015-04-28 21:58:51
    Text #5
    ID                                       : 11
    Format                                   : Apple text
    Codec ID                                 : text
    Duration                                 : 1h 28mn
    Bit rate mode                            : Variable
    Bit rate                                 : 1 bps
    Stream size                              : 663 Bytes (0%)
    Language                                 : English
    Encoded date                             : UTC 2015-04-28 21:59:07
    Tagged date                              : UTC 2015-04-28 21:59:07
    Menu
    00:00:00.000                             : Chapter 1
    00:03:06.812                             : Chapter 2
    00:06:55.665                             : Chapter 3
    00:10:30.213                             : Chapter 4
    00:12:45.431                             : Chapter 5
    00:15:35.768                             : Chapter 6
    00:19:16.155                             : Chapter 7
    00:23:56.101                             : Chapter 8
    00:27:03.747                             : Chapter 9
    00:31:27.094                             : Chapter 10
    00:34:00.538                             : Chapter 11
    00:36:29.938                             : Chapter 12
    00:38:03.281                             : Chapter 13
    00:41:04.962                             : Chapter 14
    00:43:01.662                             : Chapter 15
    00:46:38.170                             : Chapter 16
    00:48:49.677                             : Chapter 17
    00:52:33.400                             : Chapter 18
    00:55:37.042                             : Chapter 19
    00:58:21.623                             : Chapter 20
    01:02:54.020                             : Chapter 21
    01:07:24.499                             : Chapter 22
    01:09:40.134                             : Chapter 23
    01:11:47.845                             : Chapter 24
    01:15:47.084                             : Chapter 25
    01:18:32.541                             : Chapter 26
    01:21:48.278                             : Chapter 27
    01:23:52.778                             : Chapter 28

    x264 лог

    x264 [info]: frame I:597   Avg QP:15.41  size:130948
    x264 [info]: frame P:30838 Avg QP:17.92  size: 62618
    x264 [info]: frame B:96413 Avg QP:18.74  size: 34425
    x264 [info]: consecutive B-frames:  3.6%  4.2% 16.5%  9.4% 12.8% 45.6%  3.0%  0.6%  0.5%  0.4%  0.7%  0.5%  0.7%  0.4%  0.3%  0.2%  0.7%
    x264 [info]: mb I  I16..4: 15.3% 78.3%  6.3%
    x264 [info]: mb P  I16..4:  3.2% 18.6%  0.9%  P16..4: 47.8% 11.1%  9.2%  0.2%  0.1%    skip: 9.0%
    x264 [info]: mb B  I16..4:  0.2%  3.2%  0.1%  B16..8: 44.3%  8.6%  1.8%  direct: 9.7%  skip:32.1%  L0:45.9% L1:46.4% BI: 7.7%
    x264 [info]: 8x8 transform intra:85.0% inter:67.0%
    x264 [info]: direct mvs  spatial:98.6% temporal:1.4%
    x264 [info]: coded y,uvDC,uvAC intra: 84.3% 83.0% 68.1% inter: 32.1% 30.8% 12.3%
    x264 [info]: i16 v,h,dc,p: 25% 14% 14% 48%
    x264 [info]: i8 v,h,dc,ddl,ddr,vr,hd,vl,hu:  8%  8% 13% 10% 13% 12% 12% 11% 13%
    x264 [info]: i4 v,h,dc,ddl,ddr,vr,hd,vl,hu: 10%  9%  5% 10% 15% 13% 14% 11% 13%
    x264 [info]: i8c dc,h,v,p: 58% 17% 12% 13%
    x264 [info]: Weighted P-Frames: Y:9.4% UV:6.9%
    x264 [info]: ref P L0: 50.1%  6.9% 25.5% 13.7%  3.6%  0.2%
    x264 [info]: ref B L0: 79.7% 16.6%  3.7%
    x264 [info]: ref B L1: 88.8% 11.2%
    x264 [info]: kb/s:7993.74

    Скриншоты

    -

    Релиз подготовлен для просмотра на Apple TV, iPad, iPhone, iPod Touch.
    Для просмотра данного релиза на компьютере с ОС Windows рекомендуется использовать VLC media player
    Скачать .torrent

    Скачать торрент-файл бесплатно и на максимальной скорости!

    Как скачивать? · Что такое торрент? · Рейтинг и ограничения

    !ВНИМАНИЕ!
    Сайт не распространяет и не хранит электронные версии произведений, а занимается лишь лишь предоставлением доступа к создаваемому пользователями каталогу ссылок на торрент-файлы, которые содержат только списки хеш-сумм, убедительная просьба с жалобами обращаться напрямую к пользователю. Файлы для обмена на трекере предоставлены пользователями сайта, и администрация не несёт ответственности за их содержание. Просьба не заливать файлы, защищенные авторскими правами, а также файлы нелегального содержания!


    _________________
    [Профиль] [ЛС]
    Показать сообщения:    
    Ответить на тему

    Текущее время: Сегодня, в 10:14

    Часовой пояс: GMT + 2



    Вы не можете начинать темы
    Вы не можете отвечать на сообщения
    Вы не можете редактировать свои сообщения
    Вы не можете удалять свои сообщения
    Вы не можете голосовать в опросах
    Вы не можете прикреплять файлы к сообщениям
    Вы не можете скачивать файлы